  0
SECTION
  2
HEADER
  9
$ACADVER
  1
AC1021
  9
$ACADMAINTVER
 70
     1
  9
$DWGCODEPAGE
  3
ANSI_1252
  9
$AUTHOR
  1
‘Created by Cad / Cam Services, Inc. for Amazon Services LLC on November, 2012’
  9
$LASTSAVEDBY
  1
anmin
  9
$INSBASE
 10
0.0
 20
0.0
 30
0.0
  9
$EXTMIN
 10
-0.001099218767898
 20
-0.0007372841086379
 30
-0.0000000000000053
  9
$EXTMAX
 10
14.07203530492502
 20
10.65661808319525
 30
0.0000000000000099
  9
$LIMMIN
 10
0.0
 20
0.0
  9
$LIMMAX
 10
16.53543307086614
 20
11.69291338582677
  9
$ORTHOMODE
 70
     0
  9
$REGENMODE
 70
     1
  9
$FILLMODE
 70
     1
  9
$QTEXTMODE
 70
     0
  9
$MIRRTEXT
 70
     1
  9
$LTSCALE
 40
1.0
  9
$ATTMODE
 70
     1
  9
$TEXTSIZE
 40
0.2
  9
$TRACEWID
 40
0.05
  9
$TEXTSTYLE
  7
Standard
  9
$CLAYER
  8
DIM
  9
$CELTYPE
  6
ByLayer
  9
$CECOLOR
 62
   256
  9
$CELTSCALE
 40
1.0
  9
$DISPSILH
 70
     0
  9
$DIMSCALE
 40
1.0
  9
$DIMASZ
 40
0.14
  9
$DIMEXO
 40
0.06
  9
$DIMDLI
 40
0.38
  9
$DIMRND
 40
0.0
  9
$DIMDLE
 40
0.0
  9
$DIMEXE
 40
0.06
  9
$DIMTP
 40
0.0
  9
$DIMTM
 40
0.0
  9
$DIMTXT
 40
0.14
  9
$DIMCEN
 40
0.09
  9
$DIMTSZ
 40
0.0
  9
$DIMTOL
 70
     0
  9
$DIMLIM
 70
     0
  9
$DIMTIH
 70
     0
  9
$DIMTOH
 70
     0
  9
$DIMSE1
 70
     0
  9
$DIMSE2
 70
     0
  9
$DIMTAD
 70
     1
  9
$DIMZIN
 70
     0
  9
$DIMBLK
  1

  9
$DIMASO
 70
     1
  9
$DIMSHO
 70
     1
  9
$DIMPOST
  1

  9
$DIMAPOST
  1

  9
$DIMALT
 70
     0
  9
$DIMALTD
 70
     2
  9
$DIMALTF
 40
25.4
  9
$DIMLFAC
 40
1.0
  9
$DIMTOFL
 70
     1
  9
$DIMTVP
 40
0.0
  9
$DIMTIX
 70
     0
  9
$DIMSOXD
 70
     0
  9
$DIMSAH
 70
     0
  9
$DIMBLK1
  1

  9
$DIMBLK2
  1

  9
$DIMSTYLE
  2
Standard
  9
$DIMCLRD
 70
     0
  9
$DIMCLRE
 70
     0
  9
$DIMCLRT
 70
     0
  9
$DIMTFAC
 40
1.0
  9
$DIMGAP
 40
0.05
  9
$DIMJUST
 70
     0
  9
$DIMSD1
 70
     0
  9
$DIMSD2
 70
     0
  9
$DIMTOLJ
 70
     1
  9
$DIMTZIN
 70
     0
  9
$DIMALTZ
 70
     0
  9
$DIMALTTZ
 70
     0
  9
$DIMUPT
 70
     0
  9
$DIMDEC
 70
     3
  9
$DIMTDEC
 70
     3
  9
$DIMALTU
 70
     2
  9
$DIMALTTD
 70
     2
  9
$DIMTXSTY
  7
Standard
  9
$DIMAUNIT
 70
     0
  9
$DIMADEC
 70
     0
  9
$DIMALTRND
 40
0.0
  9
$DIMAZIN
 70
     0
  9
$DIMDSEP
 70
    46
  9
$DIMATFIT
 70
     3
  9
$DIMFRAC
 70
     0
  9
$DIMLDRBLK
  1

  9
$DIMLUNIT
 70
     2
  9
$DIMLWD
 70
    -2
  9
$DIMLWE
 70
    -2
  9
$DIMTMOVE
 70
     0
  9
$DIMFXL
 40
1.0
  9
$DIMFXLON
 70
     0
  9
$DIMJOGANG
 40
0.7853981633974483
  9
$DIMTFILL
 70
     0
  9
$DIMTFILLCLR
 70
     0
  9
$DIMARCSYM
 70
     0
  9
$DIMLTYPE
  6

  9
$DIMLTEX1
  6

  9
$DIMLTEX2
  6

  9
$LUNITS
 70
     2
  9
$LUPREC
 70
     2
  9
$SKETCHINC
 40
0.1
  9
$FILLETRAD
 40
0.5
  9
$AUNITS
 70
     0
  9
$AUPREC
 70
     2
  9
$MENU
  1
.
  9
$ELEVATION
 40
0.0
  9
$PELEVATION
 40
0.0
  9
$THICKNESS
 40
0.0
  9
$LIMCHECK
 70
     0
  9
$CHAMFERA
 40
0.5
  9
$CHAMFERB
 40
0.5
  9
$CHAMFERC
 40
1.0
  9
$CHAMFERD
 40
0.0
  9
$SKPOLY
 70
     0
  9
$TDCREATE
 40
2456536.525304537
  9
$TDUCREATE
 40
2456536.296137870
  9
$TDUPDATE
 40
2456544.825664421
  9
$TDUUPDATE
 40
2456544.596497755
  9
$TDINDWG
 40
0.0342880208
  9
$TDUSRTIMER
 40
0.0342880208
  9
$USRTIMER
 70
     1
  9
$ANGBASE
 50
0.0
  9
$ANGDIR
 70
     0
  9
$PDMODE
 70
     0
  9
$PDSIZE
 40
-1.0
  9
$PLINEWID
 40
0.0
  9
$SPLFRAME
 70
     0
  9
$SPLINETYPE
 70
     6
  9
$SPLINESEGS
 70
     8
  9
$HANDSEED
  5
1FAE
  9
$SURFTAB1
 70
     6
  9
$SURFTAB2
 70
     6
  9
$SURFTYPE
 70
     6
  9
$SURFU
 70
     6
  9
$SURFV
 70
     6
  9
$UCSBASE
  2

  9
$UCSNAME
  2

  9
$UCSORG
 10
0.0
 20
0.0
 30
0.0
  9
$UCSXDIR
 10
1.0
 20
0.0
 30
0.0
  9
$UCSYDIR
 10
0.0
 20
1.0
 30
0.0
  9
$UCSORTHOREF
  2

  9
$UCSORTHOVIEW
 70
     0
  9
$UCSORGTOP
 10
0.0
 20
0.0
 30
0.0
  9
$UCSORGBOTTOM
 10
0.0
 20
0.0
 30
0.0
  9
$UCSORGLEFT
 10
0.0
 20
0.0
 30
0.0
  9
$UCSORGRIGHT
 10
0.0
 20
0.0
 30
0.0
  9
$UCSORGFRONT
 10
0.0
 20
0.0
 30
0.0
  9
$UCSORGBACK
 10
0.0
 20
0.0
 30
0.0
  9
$PUCSBASE
  2

  9
$PUCSNAME
  2

  9
$PUCSORG
 10
0.0
 20
0.0
 30
0.0
  9
$PUCSXDIR
 10
1.0
 20
0.0
 30
0.0
  9
$PUCSYDIR
 10
0.0
 20
1.0
 30
0.0
  9
$PUCSORTHOREF
  2

  9
$PUCSORTHOVIEW
 70
     0
  9
$PUCSORGTOP
 10
0.0
 20
0.0
 30
0.0
  9
$PUCSORGBOTTOM
 10
0.0
 20
0.0
 30
0.0
  9
$PUCSORGLEFT
 10
0.0
 20
0.0
 30
0.0
  9
$PUCSORGRIGHT
 10
0.0
 20
0.0
 30
0.0
  9
$PUCSORGFRONT
 10
0.0
 20
0.0
 30
0.0
  9
$PUCSORGBACK
 10
0.0
 20
0.0
 30
0.0
  9
$USERI1
 70
     0
  9
$USERI2
 70
     0
  9
$USERI3
 70
     0
  9
$USERI4
 70
     0
  9
$USERI5
 70
     0
  9
$USERR1
 40
0.0
  9
$USERR2
 40
0.0
  9
$USERR3
 40
0.0
  9
$USERR4
 40
0.0
  9
$USERR5
 40
0.0
  9
$WORLDVIEW
 70
     1
  9
$SHADEDGE
 70
     3
  9
$SHADEDIF
 70
    70
  9
$TILEMODE
 70
     1
  9
$MAXACTVP
 70
    64
  9
$PINSBASE
 10
0.0
 20
0.0
 30
0.0
  9
$PLIMCHECK
 70
     0
  9
$PEXTMIN
 10
1.000000000000000E+20
 20
1.000000000000000E+20
 30
1.000000000000000E+20
  9
$PEXTMAX
 10
-1.000000000000000E+20
 20
-1.000000000000000E+20
 30
-1.000000000000000E+20
  9
$PLIMMIN
 10
0.0
 20
0.0
  9
$PLIMMAX
 10
12.0
 20
9.0
  9
$UNITMODE
 70
     0
  9
$VISRETAIN
 70
     1
  9
$PLINEGEN
 70
     0
  9
$PSLTSCALE
 70
     1
  9
$TREEDEPTH
 70
  3020
  9
$CMLSTYLE
  2
Standard
  9
$CMLJUST
 70
     0
  9
$CMLSCALE
 40
1.0
  9
$PROXYGRAPHICS
 70
     1
  9
$MEASUREMENT
 70
     0
  9
$CELWEIGHT
370
    -1
  9
$ENDCAPS
280
     0
  9
$JOINSTYLE
280
     0
  9
$LWDISPLAY
290
     1
  9
$INSUNITS
 70
     1
  9
$HYPERLINKBASE
  1

  9
$STYLESHEET
  1

  9
$XEDIT
290
     1
  9
$CEPSNTYPE
380
     0
  9
$PSTYLEMODE
290
     1
  9
$FINGERPRINTGUID
  2
{291A3C61-4AFC-460A-9EBB-D06F59CF2EA4}
  9
$VERSIONGUID
  2
{F95DB3A7-8E5A-4575-816B-DF9117D8A6D6}
  9
$EXTNAMES
290
     1
  9
$PSVPSCALE
 40
0.0
  9
$OLESTARTUP
290
     0
  9
$SORTENTS
280
   127
  9
$INDEXCTL
280
     0
  9
$HIDETEXT
280
     0
  9
$XCLIPFRAME
290
     0
  9
$HALOGAP
280
     0
  9
$OBSCOLOR
 70
   257
  9
$OBSLTYPE
280
     0
  9
$INTERSECTIONDISPLAY
280
     0
  9
$INTERSECTIONCOLOR
 70
   257
  9
$DIMASSOC
280
     1
  9
$PROJECTNAME
  1

  9
$CAMERADISPLAY
290
     0
  9
$LENSLENGTH
 40
50.0
  9
$CAMERAHEIGHT
 40
0.0
  9
$STEPSPERSEC
 40
2.0
  9
$STEPSIZE
 40
6.0
  9
$3DDWFPREC
 40
2.0
  9
$PSOLWIDTH
 40
0.25
  9
$PSOLHEIGHT
 40
4.0
  9
$LOFTANG1
 40
1.570796326794896
  9
$LOFTANG2
 40
1.570796326794896
  9
$LOFTMAG1
 40
0.0
  9
$LOFTMAG2
 40
0.0
  9
$LOFTPARAM
 70
     7
  9
$LOFTNORMALS
280
     1
  9
$LATITUDE
 40
37.795
  9
$LONGITUDE
 40
-122.394
  9
$NORTHDIRECTION
 40
0.0
  9
$TIMEZONE
 70
 -8000
  9
$LIGHTGLYPHDISPLAY
280
     1
  9
$TILEMODELIGHTSYNCH
280
     1
  9
$CMATERIAL
347
E8
  9
$SOLIDHIST
280
     1
  9
$SHOWHIST
280
     1
  9
$DWFFRAME
280
     2
  9
$DGNFRAME
280
     0
  9
$REALWORLDSCALE
290
     1
  9
$INTERFERECOLOR
 62
     1
  9
$INTERFEREOBJVS
345
F5
  9
$INTERFEREVPVS
346
F2
  9
$CSHADOW
280
     0
  9
$SHADOWPLANELOCATION
 40
0.0
  0
ENDSEC
  0
SECTION
  2
CLASSES
  0
CLASS
  1
ACDBDICTIONARYWDFLT
  2
AcDbDictionaryWithDefault
  3
ObjectDBX Classes
 90
        0
 91
        1
280
     0
281
     0
  0
CLASS
  1
VISUALSTYLE
  2
AcDbVisualStyle
  3
ObjectDBX Classes
 90
     4095
 91
       16
280
     0
281
     0
  0
CLASS
  1
MATERIAL
  2
AcDbMaterial
  3
ObjectDBX Classes
 90
     1024
 91
        3
280
     0
281
     0
  0
CLASS
  1
TABLESTYLE
  2
AcDbTableStyle
  3
ObjectDBX Classes
 90
     4095
 91
        1
280
     0
281
     0
  0
CLASS
  1
DICTIONARYVAR
  2
AcDbDictionaryVar
  3
ObjectDBX Classes
 90
        0
 91
        1
280
     0
281
     0
  0
CLASS
  1
SORTENTSTABLE
  2
AcDbSortentsTable
  3
ObjectDBX Classes
 90
        0
 91
        1
280
     0
281
     0
  0
CLASS
  1
PLOTSETTINGS
  2
AcDbPlotSettings
  3
ObjectDBX Classes
 90
        0
 91
        2
280
     0
281
     0
  0
ENDSEC
  0
SECTION
  2
TABLES
  0
TABLE
  2
VPORT
  5
8
102
{ACAD_XDICTIONARY
360
4DC
102
}
330
0
100
AcDbSymbolTable
 70
     1
  0
VPORT
  5
29
330
8
100
AcDbSymbolTableRecord
100
AcDbViewportTableRecord
  2
*Active
 70
     0
 10
0.0
 20
0.0
 11
1.0
 21
1.0
 12
7.035468043078561
 22
5.327940399543305
 13
0.0
 23
0.0
 14
0.5
 24
0.5
 15
0.5
 25
0.5
 16
0.0
 26
0.0
 36
1.0
 17
0.0
 27
0.0
 37
0.0
 40
10.76392892097692
 41
1.82804674457429
 42
50.0
 43
0.0
 44
0.0
 50
0.0
 51
0.0
 71
     0
 72
  2000
 73
     1
 74
     3
 75
     0
 76
     0
 77
     0
 78
     0
281
     0
 65
     1
110
0.0
120
0.0
130
0.0
111
1.0
121
0.0
131
0.0
112
0.0
122
1.0
132
0.0
 79
     0
146
0.0
348
F1
 60
     3
 61
     5
292
     1
282
     1
141
0.0
142
0.0
 63
   250
421
  3355443
  0
ENDTAB
  0
TABLE
  2
LTYPE
  5
5
330
0
100
AcDbSymbolTable
 70
     3
  0
LTYPE
  5
14
330
5
100
AcDbSymbolTableRecord
100
AcDbLinetypeTableRecord
  2
ByBlock
 70
     0
  3

 72
    65
 73
     0
 40
0.0
  0
LTYPE
  5
15
330
5
100
AcDbSymbolTableRecord
100
AcDbLinetypeTableRecord
  2
ByLayer
 70
     0
  3

 72
    65
 73
     0
 40
0.0
  0
LTYPE
  5
16
330
5
100
AcDbSymbolTableRecord
100
AcDbLinetypeTableRecord
  2
Continuous
 70
     0
  3
Solid line
 72
    65
 73
     0
 40
0.0
  0
LTYPE
  5
C57
330
5
100
AcDbSymbolTableRecord
100
AcDbLinetypeTableRecord
  2
HIDDEN
 70
     0
  3
_ _ _ _ _ _ _ _ _ _ _ _ _ _ _ _ _ _ _ _ _ _ _
 72
    65
 73
     2
 40
0.375
 49
0.25
 74
     0
 49
-0.125
 74
     0
  0
LTYPE
  5
1336
330
5
100
AcDbSymbolTableRecord
100
AcDbLinetypeTableRecord
  2
CENTER
 70
     0
  3
____ _ ____ _ ____ _ ____ _ ____ _ ____ _ ____
 72
    65
 73
     4
 40
2.0
 49
1.25
 74
     0
 49
-0.25
 74
     0
 49
0.25
 74
     0
 49
-0.25
 74
     0
  0
ENDTAB
  0
TABLE
  2
LAYER
  5
2
102
{ACAD_XDICTIONARY
360
61E
102
}
330
0
100
AcDbSymbolTable
 70
     4
  0
LAYER
  5
10
330
2
100
AcDbSymbolTableRecord
100
AcDbLayerTableRecord
  2
0
 70
     0
 62
     7
  6
Continuous
370
    -3
390
F
347
EA
  0
LAYER
  5
44
330
2
100
AcDbSymbolTableRecord
100
AcDbLayerTableRecord
  2
FORMAT
 70
     0
 62
     7
  6
Continuous
370
    -3
390
F
347
EA
  0
LAYER
  5
125
330
2
100
AcDbSymbolTableRecord
100
AcDbLayerTableRecord
  2
Defpoints
 70
     0
 62
     7
  6
Continuous
290
     0
370
    -3
390
F
347
EA
  0
LAYER
  5
61C
330
2
100
AcDbSymbolTableRecord
100
AcDbLayerTableRecord
  2
DIM
 70
     0
 62
     8
  6
Continuous
370
    -3
390
F
347
EA
1001
AcAecLayerStandard
1000

1000

  0
ENDTAB
  0
TABLE
  2
STYLE
  5
3
330
0
100
AcDbSymbolTable
 70
     6
  0
STYLE
  5
11
330
3
100
AcDbSymbolTableRecord
100
AcDbTextStyleTableRecord
  2
Standard
 70
     0
 40
0.0
 41
1.0
 50
0.0
 71
     0
 42
0.2
  3
GOTHIC.TTF
  4

1001
ACAD
1000
Century Gothic
1071
       34
  0
STYLE
  5
66
330
3
100
AcDbSymbolTableRecord
100
AcDbTextStyleTableRecord
  2
SLDTEXTSTYLE0
 70
     0
 40
0.0
 41
0.75
 50
0.0
 71
     0
 42
0.2
  3
GOTHIC.TTF
  4

1001
ACAD
1000
Century Gothic
1071
       34
  0
STYLE
  5
6A
330
3
100
AcDbSymbolTableRecord
100
AcDbTextStyleTableRecord
  2
SLDTEXTSTYLE1
 70
     0
 40
0.0
 41
0.6875
 50
0.0
 71
     0
 42
0.2
  3
GOTHIC.TTF
  4

1001
ACAD
1000
Century Gothic
1071
       34
  0
STYLE
  5
C59
330
3
100
AcDbSymbolTableRecord
100
AcDbTextStyleTableRecord
  2
TXT
 70
     0
 40
0.0
 41
0.75
 50
0.0
 71
     0
 42
0.125
  3
TXT.shx
  4

  0
ENDTAB
  0
TABLE
  2
VIEW
  5
6
330
0
100
AcDbSymbolTable
 70
     0
  0
ENDTAB
  0
TABLE
  2
UCS
  5
7
330
0
100
AcDbSymbolTable
 70
     0
  0
ENDTAB
  0
TABLE
  2
APPID
  5
9
330
0
100
AcDbSymbolTable
 70
     5
  0
APPID
  5
12
330
9
100
AcDbSymbolTableRecord
100
AcDbRegAppTableRecord
  2
ACAD
 70
     0
  0
APPID
  5
3B8
330
9
100
AcDbSymbolTableRecord
100
AcDbRegAppTableRecord
  2
ACAD_EXEMPT_FROM_CAD_STANDARDS
 70
     0
  0
APPID
  5
413
330
9
100
AcDbSymbolTableRecord
100
AcDbRegAppTableRecord
  2
ACAD_PSEXT
 70
     0
  0
APPID
  5
61D
330
9
100
AcDbSymbolTableRecord
100
AcDbRegAppTableRecord
  2
AcAecLayerStandard
 70
     0
  0
APPID
  5
B19
330
9
100
AcDbSymbolTableRecord
100
AcDbRegAppTableRecord
  2
PE_URL
 70
     0
  0
ENDTAB
  0
TABLE
  2
DIMSTYLE
  5
A
330
0
100
AcDbSymbolTable
 70
     3
100
AcDbDimStyleTable
 71
     1
340
27
  0
DIMSTYLE
105
27
102
{ACAD_REACTORS
330
1BA1
330
1BBB
330
1BC8
330
1BD7
330
1BE4
330
1B82
330
1CE6
330
1C42
330
1C43
102
}
330
A
100
AcDbSymbolTableRecord
100
AcDbDimStyleTableRecord
  2
Standard
 70
     0
 41
0.14
 42
0.06
 44
0.06
 73
     0
 74
     0
 77
     1
140
0.14
147
0.05
172
     1
271
     3
272
     3
340
11
  0
ENDTAB
  0
TABLE
  2
BLOCK_RECORD
  5
1
330
0
100
AcDbSymbolTable
 70
    14
  0
BLOCK_RECORD
  5
1F
102
{ACAD_XDICTIONARY
360
1C36
102
}
330
1
100
AcDbSymbolTableRecord
100
AcDbBlockTableRecord
  2
*Model_Space
340
22
 70
     0
280
     1
281
     0
  0
BLOCK_RECORD
  5
1B
330
1
100
AcDbSymbolTableRecord
100
AcDbBlockTableRecord
  2
*Paper_Space
340
1E
 70
     0
280
     1
281
     0
  0
BLOCK_RECORD
  5
23
330
1
100
AcDbSymbolTableRecord
100
AcDbBlockTableRecord
  2
*Paper_Space0
340
26
 70
     0
280
     1
281
     0
  0
BLOCK_RECORD
  5
3F9
330
1
100
AcDbSymbolTableRecord
100
AcDbBlockTableRecord
  2
Block3
340
0
102
{BLKREFS
331
407
102
}
 70
     0
280
     1
281
     0
  0
BLOCK_RECORD
  5
405
330
1
100
AcDbSymbolTableRecord
100
AcDbBlockTableRecord
  2
Block2
340
0
102
{BLKREFS
331
44A
102
}
 70
     0
280
     1
281
     0
  0
BLOCK_RECORD
  5
B82
330
1
100
AcDbSymbolTableRecord
100
AcDbBlockTableRecord
  2
amazon block
340
0
310
2800000020000000200000000100080000000000000400000000000000000000000000000000000000000000000080000080000000808000800000008000800080800000C0C0C000C0DCC000F0CAA6000020400000206000002080000020A0000020C0000020E00000400000004020000040400000406000004080000040A0
310
000040C0000040E00000600000006020000060400000606000006080000060A0000060C0000060E00000800000008020000080400000806000008080000080A0000080C0000080E00000A0000000A0200000A0400000A0600000A0800000A0A00000A0C00000A0E00000C0000000C0200000C0400000C0600000C0800000C0
310
A00000C0C00000C0E00000E0000000E0200000E0400000E0600000E0800000E0A00000E0C00000E0E00040000000400020004000400040006000400080004000A0004000C0004000E00040200000402020004020400040206000402080004020A0004020C0004020E000404000004040200040404000404060004040800040
310
40A0004040C0004040E00040600000406020004060400040606000406080004060A0004060C0004060E00040800000408020004080400040806000408080004080A0004080C0004080E00040A0000040A0200040A0400040A0600040A0800040A0A00040A0C00040A0E00040C0000040C0200040C0400040C0600040C08000
310
40C0A00040C0C00040C0E00040E0000040E0200040E0400040E0600040E0800040E0A00040E0C00040E0E00080000000800020008000400080006000800080008000A0008000C0008000E00080200000802020008020400080206000802080008020A0008020C0008020E00080400000804020008040400080406000804080
310
008040A0008040C0008040E00080600000806020008060400080606000806080008060A0008060C0008060E00080800000808020008080400080806000808080008080A0008080C0008080E00080A0000080A0200080A0400080A0600080A0800080A0A00080A0C00080A0E00080C0000080C0200080C0400080C0600080C0
310
800080C0A00080C0C00080C0E00080E0000080E0200080E0400080E0600080E0800080E0A00080E0C00080E0E000C0000000C0002000C0004000C0006000C0008000C000A000C000C000C000E000C0200000C0202000C0204000C0206000C0208000C020A000C020C000C020E000C0400000C0402000C0404000C0406000C0
310
408000C040A000C040C000C040E000C0600000C0602000C0604000C0606000C0608000C060A000C060C000C060E000C0800000C0802000C0804000C0806000C0808000C080A000C080C000C080E000C0A00000C0A02000C0A04000C0A06000C0A08000C0A0A000C0A0C000C0A0E000C0C00000C0C02000C0C04000C0C06000
310
C0C08000C0C0A000F0FBFF00A4A0A000808080000000FF0000FF000000FFFF00FF000000FF00FF00FFFF0000FFFFFF0000000000000000000000000000000000000000000000000000000000000000000000000000000000000000000000000000000000000000000000000000000000000000000000000000000000000000
310
00000000000000000000000000000000000000000000000000000000000000000000000000000000000000000000000000000000000000000000000000000000000000000000000000000000000000000000000000000000000000000000000000000000000000000000000000000000000000000000000000000000000000
310
00000000000000000000000000000000000000000000000000000000000000000000000000000000000000000000000000000000000000000000000000000000000000000000000000000000000000000000000000000000000000000000000000000000000000000000000000000000000000000000000000000000000000
310
0000000000000000000000000000000000000000000000000000000000000000000000000000000000000000000000000000000000000000000000000000000000000000000000000000000000000000000000000000000000FFFFFFFFFF00000000000000000000000000000000000000000000000000FFFFFFFFFFFFFFFF
310
00000000000000000000E000E0E000E0E0E0000000FFFFFFFFFFFFFFFFFFFFFFFFFFFFFFFFE0E0E0E0E0E0E0E0E0E0E0E0E000000000FFFFFFFFFFFFFFFFFFFFFFFFFFFFFFE0E0E0E0E0E0E0E0E0E0E0E0E000000000FFFFFFFFFFFFFFFFFFFFFFFFFFFFFFE0E0E0E0E0E0E0E0E0E0E0E0E0E0000000000000000000000000
310
00000000000000000000000000000000E00000000000000000000000000000000000000000000000000000000000000000000000000000000000000000000000000000000000000000000000000000000000000000000000000000000000000000000000000000000000000000000000000000000000000000000000000000
310
00000000000000000000000000000000000000000000000000000000000000000000000000000000000000000000000000000000000000000000000000000000000000000000000000000000000000000000000000000000000000000000000000000000000000000000000000000000000000000000000000000000000000
310
00000000000000000000000000000000000000000000000000000000000000000000000000000000000000000000000000000000000000000000000000000000000000000000000000000000000000000000000000000000000000000000000000000000000000000000000000000000000000000000000000000000000000
310
0000000000000000000000000000000000000000000000000000000000000000000000000000000000000000000000000000000000000000
102
{BLKREFS
331
B8E
102
}
 70
     1
280
     1
281
     0
  0
BLOCK_RECORD
  5
C0A
330
1
100
AcDbSymbolTableRecord
100
AcDbBlockTableRecord
  2
SW_CENTERMARKSYMBOL_0
340
0
102
{BLKREFS
331
1211
102
}
 70
     0
280
     1
281
     0
  0
BLOCK_RECORD
  5
1B83
330
1
100
AcDbSymbolTableRecord
100
AcDbBlockTableRecord
  2
*D5
340
0
 70
     0
280
     1
281
     0
  0
BLOCK_RECORD
  5
1BA2
330
1
100
AcDbSymbolTableRecord
100
AcDbBlockTableRecord
  2
*D6
340
0
 70
     0
280
     1
281
     0
  0
BLOCK_RECORD
  5
1BBC
330
1
100
AcDbSymbolTableRecord
100
AcDbBlockTableRecord
  2
*D7
340
0
 70
     0
280
     1
281
     0
  0
BLOCK_RECORD
  5
1BC9
330
1
100
AcDbSymbolTableRecord
100
AcDbBlockTableRecord
  2
*D8
340
0
 70
     0
280
     1
281
     0
  0
BLOCK_RECORD
  5
1BD8
330
1
100
AcDbSymbolTableRecord
100
AcDbBlockTableRecord
  2
*D9
340
0
 70
     0
280
     1
281
     0
  0
BLOCK_RECORD
  5
1BE5
330
1
100
AcDbSymbolTableRecord
100
AcDbBlockTableRecord
  2
*D10
340
0
 70
     0
280
     1
281
     0
  0
BLOCK_RECORD
  5
1CE7
330
1
100
AcDbSymbolTableRecord
100
AcDbBlockTableRecord
  2
*D11
340
0
 70
     0
280
     1
281
     0
  0
ENDTAB
  0
ENDSEC
  0
SECTION
  2
BLOCKS
  0
BLOCK
  5
20
330
1F
100
AcDbEntity
  8
0
100
AcDbBlockBegin
  2
*Model_Space
 70
     0
 10
0.0
 20
0.0
 30
0.0
  3
*Model_Space
  1

  0
ENDBLK
  5
21
330
1F
100
AcDbEntity
  8
0
100
AcDbBlockEnd
  0
BLOCK
  5
1C
330
1B
100
AcDbEntity
 67
     1
  8
0
100
AcDbBlockBegin
  2
*Paper_Space
 70
     0
 10
0.0
 20
0.0
 30
0.0
  3
*Paper_Space
  1

  0
ENDBLK
  5
1D
330
1B
100
AcDbEntity
 67
     1
  8
0
100
AcDbBlockEnd
  0
BLOCK
  5
24
330
23
100
AcDbEntity
 67
     1
  8
0
100
AcDbBlockBegin
  2
*Paper_Space0
 70
     0
 10
0.0
 20
0.0
 30
0.0
  3
*Paper_Space0
  1

  0
ENDBLK
  5
25
330
23
100
AcDbEntity
 67
     1
  8
0
100
AcDbBlockEnd
  0
BLOCK
  5
3FA
330
3F9
100
AcDbEntity
  8
0
100
AcDbBlockBegin
  2
Block3
 70
     0
 10
0.0
 20
0.0
 30
0.0
  3
Block3
  1

  0
CIRCLE
  5
3FB
330
3F9
100
AcDbEntity
  8
FORMAT
 62
     7
370
    15
100
AcDbCircle
 10
9.623096090023436
 20
2.115622186524885
 30
0.0
 40
0.0998031496062924
  0
CIRCLE
  5
3FC
330
3F9
100
AcDbEntity
  8
FORMAT
 62
     7
370
    15
100
AcDbCircle
 10
9.623096090023436
 20
2.115622186524885
 30
0.0
 40
0.1996062992125948
  0
LINE
  5
3FD
330
3F9
100
AcDbEntity
  8
FORMAT
 62
     7
370
    15
100
AcDbLine
 10
10.05890680910872
 20
2.020396293772344
 30
0.0
 11
10.05890680910872
 21
2.210848079277426
 31
0.0
  0
LINE
  5
3FE
330
3F9
100
AcDbEntity
  8
FORMAT
 62
     7
370
    15
100
AcDbLine
 10
10.05890680910872
 20
2.210848079277426
 30
0.0
 11
10.55986477488565
 21
2.315228485737483
 31
0.0
  0
LINE
  5
3FF
330
3F9
100
AcDbEntity
  8
FORMAT
 62
     7
370
    15
100
AcDbLine
 10
10.55986477488565
 20
2.315228485737483
 30
0.0
 11
10.55986477488565
 21
1.916015887312285
 31
0.0
  0
LINE
  5
400
330
3F9
100
AcDbEntity
  8
FORMAT
 62
     7
370
    15
100
AcDbLine
 10
10.55986477488565
 20
1.916015887312285
 30
0.0
 11
10.05890680910872
 21
2.020396293772344
 31
0.0
  0
LINE
  5
401
330
3F9
100
AcDbEntity
  8
FORMAT
 62
     7
370
    15
100
AcDbLine
 10
9.987169396213419
 20
2.115622186524885
 30
0.0
 11
10.59626953693931
 21
2.115622186524885
 31
0.0
  0
LINE
  5
402
330
3F9
100
AcDbEntity
  8
FORMAT
 62
     7
370
    15
100
AcDbLine
 10
9.368122674365656
 20
2.115622186524885
 30
0.0
 11
9.87806950568121
 21
2.115622186524885
 31
0.0
  0
LINE
  5
403
330
3F9
100
AcDbEntity
  8
FORMAT
 62
     7
370
    15
100
AcDbLine
 10
9.623096090023436
 20
1.872691387914879
 30
0.0
 11
9.623096090023436
 21
2.382638219230431
 31
0.0
  0
ENDBLK
  5
404
330
3F9
100
AcDbEntity
  8
0
100
AcDbBlockEnd
  0
BLOCK
  5
406
330
405
100
AcDbEntity
  8
0
100
AcDbBlockBegin
  2
Block2
 70
     0
 10
0.0
 20
0.0
 30
0.0
  3
Block2
  1

  0
INSERT
  5
407
330
405
100
AcDbEntity
  8
0
  6
Continuous
 62
     7
100
AcDbBlockReference
  2
Block3
 10
-0.0282699124868556
 20
0.0201145539810274
 30
0.0
  0
ENDBLK
  5
408
330
405
100
AcDbEntity
  8
0
100
AcDbBlockEnd
  0
BLOCK
  5
B83
330
B82
100
AcDbEntity
  8
0
100
AcDbBlockBegin
  2
amazon block
 70
     0
 10
0.0
 20
0.0
 30
0.0
  3
amazon block
  1

  0
HATCH
  5
B84
330
B82
100
AcDbEntity
  8
0
100
AcDbHatch
 10
0.0
 20
0.0
 30
0.0
210
0.0
220
0.0
230
1.0
  2
SOLID
 70
     1
 71
     0
 91
        1
 92
        7
 72
     1
 73
     1
 93
        2
 10
0.1428560650202613
 20
0.0268249692297831
 42
0.3005568377796329
 10
0.6100026189360293
 20
0.0009915743964171
 42
-0.1486648242730099
 97
        0
 75
     0
 76
     1
 47
0.0083360314226261
 98
        1
 10
0.3681872109149253
 20
-0.0332769951503647
450
        0
451
        0
460
0.0
461
0.0
452
        1
462
1.0
453
        2
463
0.0
 63
     5
421
      255
463
1.0
 63
     7
421
 16777215
470
LINEAR
1001
ACAD
1010
0.0
1020
0.0
1030
0.0
  0
HATCH
  5
B85
330
B82
100
AcDbEntity
  8
0
100
AcDbHatch
 10
0.0
 20
0.0
 30
0.0
210
0.0
220
0.0
230
1.0
  2
SOLID
 70
     1
 71
     0
 91
        1
 92
        5
 93
        1
 72
     4
 94
        3
 73
     0
 74
     0
 95
       18
 96
       14
 40
0.0
 40
0.0
 40
0.0
 40
0.0
 40
0.3060284443094571
 40
0.531197286149225
 40
0.8695236589091486
 40
1.026135711767838
 40
1.14741598223591
 40
1.315500460348882
 40
1.413679231894078
 40
1.543957423309552
 40
1.719337158993241
 40
1.76919128251474
 40
1.852441399548553
 40
1.852441399548553
 40
1.852441399548553
 40
1.852441399548553
 10
0.5476248318910955
 20
0.0189472839500944
 10
0.5671265702171127
 20
0.0228674694218305
 10
0.5967407336623403
 20
0.0267937023518194
 10
0.6730410215606746
 20
0.0260155775369224
 10
0.6340109953118472
 20
-0.0267925718215847
 10
0.5802183818763105
 20
-0.0637796196110996
 10
0.6122605658026537
 20
-0.030937261100445
 10
0.624929189918916
 20
-0.0180757154749651
 10
0.6383573330340191
 20
0.013562833138125
 10
0.6020518241954172
 20
0.0146147000415664
 10
0.5794789444548947
 20
0.0158864032827642
 10
0.5641956865595646
 20
0.0167018526831093
 10
0.5423196975867733
 20
0.017880860532975
 10
0.5476248318910955
 20
0.0189472839500944
 97
        0
 75
     0
 76
     1
 47
0.0083360314226261
 98
        1
 10
0.644363460657651
 20
0.0075847933888076
450
        0
451
        0
460
0.0
461
0.0
452
        1
462
1.0
453
        2
463
0.0
 63
     5
421
      255
463
1.0
 63
     7
421
 16777215
470
LINEAR
1001
ACAD
1010
0.0
1020
0.0
1030
0.0
  0
HATCH
  5
B86
330
B82
100
AcDbEntity
  8
0
100
AcDbHatch
 10
0.0
 20
0.0
 30
0.0
210
0.0
220
0.0
230
1.0
  2
SOLID
 70
     1
 71
     0
 91
        9
 92
        7
 72
     1
 73
     1
 93
       20
 10
0.1000542808940033
 20
0.1169245515333142
 42
0.0
 10
0.076623507279372
 20
0.1098670896011966
 42
0.0
 10
0.0538279052386379
 20
0.1047857170100728
 42
0.113500075695427
 10
0.0222690530748579
 20
0.0943427637066989
 42
0.335029435887297
 10
0.0055338996991239
 20
0.0540936540010777
 42
0.2523749963765925
 10
0.0336435641127828
 20
0.0294825981943836
 42
0.1008759599722844
 10
0.0633554788469937
 20
0.0279299565693179
 42
0.1558313267708922
 10
0.1000872116508269
 20
0.0445146262124951
 42
0.0
 10
0.1000542808940033
 20
0.0415508580983044
 42
0.1600174655974661
 10
0.1049945042464841
 20
0.029412023575063
 42
0.0
 10
0.1350592920773046
 20
0.029412023575063
 42
-0.1096578030042886
 10
0.128707576338396
 20
0.0360460377912819
 42
-0.1371553684281488
 10
0.125037696133699
 20
0.0491729169849902
 42
0.0
 10
0.125037696133699
 20
0.1239820134654312
 42
0.267077244638994
 10
0.1011834748031433
 20
0.1551759952053882
 42
0.1085027846705916
 10
0.0570037631080815
 20
0.1602573677965124
 42
0.3343505200399534
 10
0.0108479620720452
 20
0.1204532824993727
 42
0.0
 10
0.0383720636073015
 20
0.1204532824993727
 42
-0.2815324590939715
 10
0.0559249309286685
 20
0.1381363358447958
 42
-0.1775171235246243
 10
0.0889034910412541
 20
0.1356974002727478
 42
-0.2483479329952881
 97
        0
 92
       22
 72
     1
 73
     1
 93
        8
 10
0.1000542808940033
 20
0.0951875687823911
 42
0.0
 10
0.1000542808940033
 20
0.0721802428836922
 42
-0.2004737922071577
 10
0.0675899560062661
 20
0.0493140662236327
 42
-0.1115040980661369
 10
0.0435945854370701
 20
0.0491023423656691
 42
-0.2738586692622027
 10
0.0327260940616085
 20
0.0607471545536624
 42
-0.289643054085014
 10
0.0396424067550818
 20
0.0788142570998818
 42
-0.1190249358109779
 10
0.0555922707216681
 20
0.0853071220774298
 42
-0.0006545690929014
 10
0.0798699397681482
 20
0.090247345429912
 42
0.031014715336947
 97
        0
 92
        7
 72
     1
 73
     1
 93
       27
 10
0.1652652291467689
 20
0.029412023575063
 42
0.0
 10
0.190248644386461
 20
0.029412023575063
 42
0.0
 10
0.190248644386461
 20
0.1101493880784821
 42
-0.1716644096531924
 10
0.201540583477847
 20
0.1296279830111251
 42
-0.1448545784781812
 10
0.2204545814559218
 20
0.1386615342842345
 42
-0.1340090766267909
 10
0.2387334078601029
 20
0.1364737210852782
 42
-0.2563461470910333
 10
0.251789712434519
 20
0.1191829393515924
 42
0.0
 10
0.251789712434519
 20
0.029412023575063
 42
0.0
 10
0.2769142769128621
 20
0.029412023575063
 42
0.0
 10
0.2769142769128585
 20
0.1122248338667866
 42
-0.1830801363087423
 10
0.290394029203199
 20
0.1313217738748333
 42
-0.1206854715101709
 10
0.3079671094141716
 20
0.1382380865683075
 42
-0.2157527517618656
 10
0.3302955423434426
 20
0.1343051372786799
 42
-0.2679983488848178
 10
0.33845534496092
 20
0.1204532824994029
 42
0.0
 10
0.3384553449609164
 20
0.029412023575063
 42
0.0
 10
0.3634387602006122
 20
0.029412023575063
 42
0.0
 10
0.3634387602006122
 20
0.1204532824993727
 42
0.0
 10
0.3634387602006122
 20
0.1262404012837086
 42
0.2784603970195297
 10
0.3398668373473406
 20
0.1571520845463814
 42
0.1495326253440701
 10
0.3038737814935466
 20
0.1587047261714471
 42
0.1796241607690637
 10
0.2743735906172944
 20
0.1366854449432417
 42
0.1190036376854939
 10
0.259270622082564
 20
0.1530587566257537
 42
0.1510696384071214
 10
0.2256771032856868
 20
0.1606808155124395
 42
0.122416550902687
 10
0.2069042545462558
 20
0.154611398250819
 42
0.0903817772246913
 10
0.190248644386461
 20
0.1389438327615187
 42
0.0
 10
0.190248644386461
 20
0.1584224276941626
 42
0.0
 10
0.1652652291467689
 20
0.1584224276941626
 42
0.0
 97
        0
 92
        7
 72
     1
 73
     1
 93
       20
 10
0.394400052158776
 20
0.0540936540010786
 42
0.2523749963765703
 10
0.4225097165724279
 20
0.0294825981943845
 42
0.100875959972303
 10
0.4522216313066459
 20
0.0279299565693183
 42
0.1558313267708855
 10
0.4889533641104756
 20
0.0445146262124951
 42
0.0
 10
0.4889204333536519
 20
0.0415508580983044
 42
0.1600174655974661
 10
0.4938606567061364
 20
0.029412023575063
 42
0.0
 10
0.5239254445369533
 20
0.029412023575063
 42
-0.1096578030036369
 10
0.5175737287980695
 20
0.0360460377912322
 42
-0.1371553684287215
 10
0.5139038485933476
 20
0.0491729169849902
 42
0.0
 10
0.5139038485933476
 20
0.1239820134654312
 42
0.2670772446390557
 10
0.4900496272627848
 20
0.1551759952053913
 42
0.1085027846705556
 10
0.4458699155677373
 20
0.1602573677965129
 42
0.3343505200399825
 10
0.3997141145316938
 20
0.1204532824993727
 42
0.0
 10
0.4272382160669502
 20
0.1204532824993727
 42
-0.2815324590939487
 10
0.44479108338831
 20
0.138136335844794
 42
-0.1775171235246857
 10
0.4777696435009098
 20
0.1356974002727447
 42
-0.2483479329952225
 10
0.4889204333536519
 20
0.1169245515333142
 42
0.0
 10
0.4654896597390277
 20
0.1098670896011979
 42
0.0
 10
0.4426940576982866
 20
0.1047857170100728
 42
0.113500075695427
 10
0.4111352055345066
 20
0.0943427637066989
 42
0.335029435887291
 97
        0
 92
       22
 72
     1
 73
     1
 93
        8
 10
0.428508559214734
 20
0.0788142570998818
 42
-0.1190249358109779
 10
0.4444584231813167
 20
0.0853071220774298
 42
-0.0006545690929014
 10
0.4687360922277968
 20
0.090247345429912
 42
0.0310147153369478
 10
0.4889204333536519
 20
0.0951875687823938
 42
0.0
 10
0.4889204333536519
 20
0.0721802428836922
 42
-0.2004737922071577
 10
0.4564561084659147
 20
0.0493140662236327
 42
-0.1115040980661369
 10
0.4324607378967152
 20
0.0491023423656691
 42
-0.2738586692622027
 10
0.4215922465212572
 20
0.0607471545536624
 42
-0.289643054085014
 97
        0
 92
        7
 72
     1
 73
     1
 93
       10
 10
0.663239743076943
 20
0.1331926123684131
 42
0.0
 10
0.663239743076943
 20
0.1584224276941626
 42
0.0
 10
0.5528610384586337
 20
0.1584224276941626
 42
0.0
 10
0.5528610384586337
 20
0.131856746110742
 42
0.0
 10
0.6257181970985002
 20
0.131856746110742
 42
0.0
 10
0.5479208151061528
 20
0.0491729169849911
 42
0.0
 10
0.5479208151061528
 20
0.0294120235750635
 42
-0.1473109550280885
 10
0.6697326080544919
 20
0.0294120235750626
 42
0.0
 10
0.6697326080544919
 20
0.0571523003158232
 42
0.0747823019347494
 10
0.5993877560186079
 20
0.0648932232264121
 42
0.0
 97
        0
 92
        7
 72
     1
 73
     1
 93
        2
 10
0.6959863664419679
 20
0.0963873373108535
 42
1.0
 10
0.8314896355386132
 20
0.0963873373108535
 42
1.0
 97
        0
 92
       22
 72
     1
 73
     1
 93
        2
 10
0.8038952074487184
 20
0.0963873373108535
 42
-1.0
 10
0.7235807945318662
 20
0.0963873373108535
 42
-1.0
 97
        0
 92
        7
 72
     1
 73
     1
 93
       15
 10
0.8640951096649978
 20
0.029412023575063
 42
0.0
 10
0.8892196741433302
 20
0.029412023575063
 42
0.0
 10
0.8892196741433302
 20
0.0949052703051088
 42
-0.1884880930389393
 10
0.9041814934394203
 20
0.1270872967155627
 42
-0.0825504763720134
 10
0.9201313574060066
 20
0.1392261312388041
 42
-0.1879859195515259
 10
0.9445501756911305
 20
0.1407787728638694
 42
-0.3400688989443128
 10
0.9619115320441373
 20
0.1182045668051281
 42
0.0
 10
0.9619115320441373
 20
0.029412023575063
 42
0.0
 10
0.9870360965224733
 20
0.029412023575063
 42
0.0
 10
0.9870360965224769
 20
0.1266638489996357
 42
0.3709832727766776
 10
0.9482103391004166
 20
0.1601305380458484
 42
0.160618198198489
 10
0.9133561939511736
 20
0.1548936967281036
 42
0.0920112842116662
 10
0.8892196741433302
 20
0.1354151017954623
 42
0.0
 10
0.8892196741433338
 20
0.1584224276941626
 42
0.0
 10
0.8640951096649978
 20
0.1584224276941621
 42
0.0
 97
        0
 75
     0
 76
     1
 47
0.0079344138681199
 98
        9
 10
0.1041026039046571
 20
0.1181074496955725
 10
0.1041026039046571
 20
0.1181074496955725
 10
0.175984830732844
 20
0.0960117050036842
 10
0.4173016553328531
 20
0.0814964234246487
 10
0.4173016553328531
 20
0.0814964234246487
 10
0.6014388651587482
 20
0.0843995011035044
 10
0.7112275707548826
 20
0.1221816495361003
 10
0.7112275707548826
 20
0.1221816495361003
 10
0.8759819569295572
 20
0.1163755475860104
450
        0
451
        0
460
0.0
461
0.0
452
        1
462
1.0
453
        2
463
0.0
 63
     5
421
      255
463
1.0
 63
     7
421
 16777215
470
LINEAR
1001
ACAD
1010
0.0
1020
0.0
1030
0.0
  0
HATCH
  5
B87
330
B82
100
AcDbEntity
  8
0
 62
   150
100
AcDbHatch
 10
0.0
 20
0.0
 30
0.0
210
0.0
220
0.0
230
1.0
  2
SOLID
 70
     1
 71
     0
 91
        8
 92
        7
 72
     1
 73
     1
 93
       22
 10
1.131716859301388
 20
0.0982802106585603
 42
0.0484183422992068
 10
1.088571435005292
 20
0.1135920246412381
 42
-0.1024497749852004
 10
1.063583383368957
 20
0.125237861247649
 42
-0.5197370575112227
 10
1.065952625421378
 20
0.1500864950045506
 42
-0.1784163181567931
 10
1.097462280584622
 20
0.1562497626075707
 42
-0.1611556671223822
 10
1.130948711999153
 20
0.1417059730721331
 42
0.0
 10
1.143877562730139
 20
0.1560685971400009
 42
0.0879608039459819
 10
1.125754289819187
 20
0.1671964668262178
 42
0.096844267443967
 10
1.086490181797579
 20
0.1727441735534061
 42
0.1289645081611661
 10
1.053342092127955
 20
0.1633533786648891
 42
0.2520599057044872
 10
1.037629278411372
 20
0.1399706628121899
 42
0.2998873610886212
 10
1.050463850241648
 20
0.1096908005921695
 42
0.087968247036807
 10
1.088782354168369
 20
0.0932096049078468
 42
-0.0908267507933147
 10
1.119928772767817
 20
0.0811747820304691
 42
-0.4466858316882535
 10
1.125453128485816
 20
0.0540976492614389
 42
-0.2058443735084833
 10
1.094059901125532
 20
0.0433269295271455
 42
-0.2322683613354944
 10
1.04833474053288
 20
0.0635860005622337
 42
0.0
 10
1.033442870302863
 20
0.0487121861500608
 42
0.0897498636939959
 10
1.054992265021407
 20
0.0336893058402592
 42
0.1162784600455089
 10
1.100093060274716
 20
0.0271838680846326
 42
0.1305494116801128
 10
1.134902795650507
 20
0.0379471166909786
 42
0.2700443324603339
 10
1.150563716135536
 20
0.0687356163070478
 42
0.2747552069495999
 97
        0
 92
        7
 72
     1
 73
     1
 93
       17
 10
1.204964925758659
 20
0.0711619205531866
 42
0.0
 10
1.204964925758659
 20
0.1705032481376225
 42
0.0
 10
1.182530424786222
 20
0.1705032481376221
 42
0.0
 10
1.182530424786222
 20
0.068114123580882
 42
0.231056446390574
 10
1.200275679141658
 20
0.0337787716591849
 42
0.1033983125445035
 10
1.222016181175408
 20
0.0271400549874108
 42
0.1113661879093152
 10
1.256252700835137
 20
0.0321455417860066
 42
0.060456799039856
 10
1.280359576718197
 20
0.0437750658039402
 42
0.0
 10
1.282436740080608
 20
0.0292528824702614
 42
0.0
 10
1.305008011852606
 20
0.0292528824702614
 42
0.0
 10
1.303035750365566
 20
0.045573054697837
 42
0.0
 10
1.303035750365566
 20
0.1704535782767582
 42
0.0
 10
1.280726706724607
 20
0.1704535782767582
 42
0.0
 10
1.280726706724607
 20
0.0603385752977079
 42
-0.0926529444633646
 10
1.271406905425951
 20
0.0542136206901671
 42
-0.0664344377826394
 10
1.252018117536273
 20
0.0470706779667407
 42
-0.0713593701437487
 10
1.22596399727168
 20
0.0462232117768133
 42
-0.3666103947779491
 97
        0
 92
        7
 72
     1
 73
     1
 93
       12
 10
1.34888971452673
 20
-0.0300855190343001
 42
0.0
 10
1.37158389411627
 20
-0.0300855190342997
 42
0.0
 10
1.37158389411627
 20
0.0381322242109672
 42
0.2065475696655794
 10
1.43316687203049
 20
0.0295489681525751
 42
0.2194428372319613
 10
1.471434120104095
 20
0.0681246169490031
 42
0.1323036971285341
 10
1.475462458348772
 20
0.1210354643912233
 42
0.1641390880683366
 10
1.453695611337639
 20
0.1611617476764042
 42
0.205639974219759
 10
1.404711616991345
 20
0.1717914749112652
 42
0.0657328919071964
 10
1.371062306057382
 20
0.1603071107053626
 42
0.0
 10
1.369185970032088
 20
0.1704922854774775
 42
0.0
 10
1.347893491957236
 20
0.1704922854774775
 42
0.0
 10
1.348889714526734
 20
0.1571025974974671
 42
0.0
 97
        0
 92
       22
 72
     1
 73
     1
 93
        8
 10
1.37158389411627
 20
0.1447873628418232
 42
-0.1242339830404592
 10
1.408127279067805
 20
0.1549128436768488
 42
-0.229840994742505
 10
1.439329608924591
 20
0.143501077402358
 42
-0.1934262502536381
 10
1.452032531529923
 20
0.1169919663469652
 42
-0.1013985410677669
 10
1.45007247035501
 20
0.0757878280977211
 42
-0.2083357761076617
 10
1.426144858393048
 20
0.0470888301796872
 42
-0.1496858148879605
 10
1.383365488627418
 20
0.0497243925890185
 42
-0.0899155484976542
 10
1.37158389411627
 20
0.0564933659367366
 42
0.0
 97
        0
 92
        7
 72
     1
 73
     1
 93
       12
 10
1.536384209201344
 20
0.0381322242109672
 42
0.2065475696655794
 10
1.597967187115564
 20
0.0295489681525751
 42
0.2194428372319613
 10
1.63623443518917
 20
0.0681246169490031
 42
0.1323036971285341
 10
1.640262773433846
 20
0.1210354643912233
 42
0.1641390880683366
 10
1.618495926422713
 20
0.1611617476764042
 42
0.205639974219759
 10
1.569511932076419
 20
0.1717914749112652
 42
0.0657328919071964
 10
1.535862621142456
 20
0.1603071107053626
 42
0.0
 10
1.533986285117165
 20
0.1704922854774775
 42
0.0
 10
1.51269380704231
 20
0.1704922854774775
 42
0.0
 10
1.513690029611812
 20
0.1571025974974671
 42
0.0
 10
1.513690029611804
 20
-0.0300855190343001
 42
0.0
 10
1.536384209201344
 20
-0.0300855190342997
 42
0.0
 97
        0
 92
       22
 72
     1
 73
     1
 93
        8
 10
1.53638420920134
 20
0.0564933659367348
 42
0.0
 10
1.536384209201344
 20
0.1447873628418232
 42
-0.1242339830404592
 10
1.572927594152879
 20
0.1549128436768488
 42
-0.229840994742505
 10
1.604129924009665
 20
0.143501077402358
 42
-0.1934262502536381
 10
1.616832846614997
 20
0.1169919663469652
 42
-0.1013985410677669
 10
1.614872785440084
 20
0.0757878280977211
 42
-0.2083357761076617
 10
1.590945173478122
 20
0.0470888301796872
 42
-0.1496858148879605
 10
1.548165803712493
 20
0.0497243925890185
 42
-0.0899155484976689
 97
        0
 92
        7
 72
     1
 73
     1
 93
        9
 10
1.700061888317705
 20
0.2342426883985293
 42
0.0
 10
1.677630680467434
 20
0.2342426883985293
 42
0.0
 10
1.67763068046743
 20
0.0525526462764159
 42
0.3003574180393968
 10
1.689763445472692
 20
0.0294232917661481
 42
0.1772930531369512
 10
1.716213749579594
 20
0.0296692382956376
 42
0.0
 10
1.726340843842322
 20
0.0328930300171466
 42
0.0
 10
1.722947015877874
 20
0.0450847282577249
 42
0.0
 10
1.715478639728772
 20
0.0445718860057287
 42
-0.4033750267256485
 10
1.700061888317705
 20
0.0551463102997136
 42
0.0
 97
        0
 92
        7
 72
     1
 73
     1
 93
       13
 10
1.756550300014353
 20
0.1705037737446156
 42
0.0
 10
1.733158403445031
 20
0.1705037737446147
 42
0.0
 10
1.789004390745333
 20
0.0387212794769898
 42
-0.1248046720339364
 10
1.779651976914252
 20
0.0098440558334927
 42
-0.2041270254703542
 10
1.758338890268429
 20
-0.0108879300937863
 42
-0.1582846410265598
 10
1.728104948139659
 20
-0.0088290148710986
 42
0.0
 10
1.723524002749954
 20
-0.0288461752875353
 42
0.0503996825504031
 10
1.752727303871125
 20
-0.0310194851179708
 42
0.1573307408029109
 10
1.778748174224848
 20
-0.02185783610684
 42
0.1379639421479074
 10
1.7998397718477
 20
0.0061205808064937
 42
0.0
 10
1.863932002621172
 20
0.1705037737446151
 42
0.0
 10
1.84037943355916
 20
0.1705037737446147
 42
0.0
 10
1.801429340670335
 20
0.0575527643750102
 42
0.0
 97
        0
 75
     0
 76
     1
 47
0.0008892483299936
 98
        8
 10
1.136466178840407
 20
0.0806040287034282
 10
1.218376325116423
 20
0.039698608137611
 10
1.365280380260387
 20
0.0654868019383397
 10
1.365280380260387
 20
0.0654868019383397
 10
1.532067085388874
 20
0.0510462190903649
 10
1.532067085388874
 20
0.0510462190903649
 10
1.692326025665067
 20
0.0661634458554534
 10
1.78937173321124
 20
0.0643849607353548
450
        0
451
        0
460
0.0
461
0.0
452
        1
462
1.0
453
        2
463
0.0
 63
     5
421
      255
463
1.0
 63
     7
421
 16777215
470
LINEAR
1001
ACAD
1010
0.0
1020
0.0
1030
0.0
  0
ENDBLK
  5
B88
330
B82
100
AcDbEntity
  8
0
100
AcDbBlockEnd
  0
BLOCK
  5
C0B
330
C0A
100
AcDbEntity
  8
0
100
AcDbBlockBegin
  2
SW_CENTERMARKSYMBOL_0
 70
     0
 10
0.0
 20
0.0
 30
0.0
  3
SW_CENTERMARKSYMBOL_0
  1

  0
LINE
  5
C0C
330
C0A
100
AcDbEntity
  8
0
  6
Continuous
 62
     0
370
     0
100
AcDbLine
 10
0.0
 20
0.0
 30
0.0
 11
0.0
 21
0.1000000000000006
 31
0.0
  0
LINE
  5
C0D
330
C0A
100
AcDbEntity
  8
0
  6
Continuous
 62
     0
370
     0
100
AcDbLine
 10
0.0
 20
0.0
 30
0.0
 11
-0.1000000000000038
 21
0.0
 31
0.0
  0
LINE
  5
C0E
330
C0A
100
AcDbEntity
  8
0
  6
Continuous
 62
     0
370
     0
100
AcDbLine
 10
0.0
 20
0.0
 30
0.0
 11
0.0
 21
-0.0999999999999995
 31
0.0
  0
LINE
  5
C0F
330
C0A
100
AcDbEntity
  8
0
  6
Continuous
 62
     0
370
     0
100
AcDbLine
 10
0.0
 20
0.0
 30
0.0
 11
0.0999999999999995
 21
0.0
 31
0.0
  0
LINE
  5
C10
330
C0A
100
AcDbEntity
  8
0
  6
Continuous
 62
     0
370
     0
100
AcDbLine
 10
0.0
 20
0.2
 30
0.0
 11
0.0
 21
0.4350000000000012
 31
0.0
  0
LINE
  5
C11
330
C0A
100
AcDbEntity
  8
0
  6
Continuous
 62
     0
370
     0
100
AcDbLine
 10
-0.2000000000000033
 20
0.0
 30
0.0
 11
-0.4350000000000035
 21
0.0
 31
0.0
  0
LINE
  5
C12
330
C0A
100
AcDbEntity
  8
0
  6
Continuous
 62
     0
370
     0
100
AcDbLine
 10
0.0
 20
-0.199999999999999
 30
0.0
 11
0.0
 21
-0.4349999999999991
 31
0.0
  0
LINE
  5
C13
330
C0A
100
AcDbEntity
  8
0
  6
Continuous
 62
     0
370
     0
100
AcDbLine
 10
0.199999999999999
 20
0.0
 30
0.0
 11
0.4349999999999991
 21
0.0
 31
0.0
  0
ENDBLK
  5
C14
330
C0A
100
AcDbEntity
  8
0
100
AcDbBlockEnd
  0
BLOCK
  5
1B8D
330
1B83
100
AcDbEntity
  8
0
100
AcDbBlockBegin
  2
*D5
 70
     1
 10
0.0
 20
0.0
 30
0.0
  3
*D5
  1

  0
LINE
  5
1F62
330
1B83
100
AcDbEntity
  8
DIM
 62
     0
370
    -2
100
AcDbLine
 10
7.245753231247612
 20
5.066358768616884
 30
0.0
 11
7.245753231247612
 21
5.704581850814298
 31
0.0
  0
LINE
  5
1F63
330
1B83
100
AcDbEntity
  8
DIM
 62
     0
370
    -2
100
AcDbLine
 10
8.261636731247612
 20
5.068234583853816
 30
0.0
 11
8.261636731247612
 21
5.704581850814298
 31
0.0
  0
LINE
  5
1F64
330
1B83
100
AcDbEntity
  8
DIM
 62
     0
370
    -2
100
AcDbLine
 10
7.385753231247612
 20
5.644581850814297
 30
0.0
 11
8.121636731247612
 21
5.644581850814297
 31
0.0
  0
SOLID
  5
1F65
330
1B83
100
AcDbEntity
  8
DIM
 62
     0
100
AcDbTrace
 10
7.385753231247612
 20
5.667915184147631
 30
0.0
 11
7.385753231247612
 21
5.621248517480964
 31
0.0
 12
7.245753231247612
 22
5.644581850814297
 32
0.0
 13
7.245753231247612
 23
5.644581850814297
 33
0.0
  0
SOLID
  5
1F66
330
1B83
100
AcDbEntity
  8
DIM
 62
     0
100
AcDbTrace
 10
8.121636731247612
 20
5.667915184147631
 30
0.0
 11
8.121636731247612
 21
5.621248517480964
 31
0.0
 12
8.261636731247612
 22
5.644581850814297
 32
0.0
 13
8.261636731247612
 23
5.644581850814297
 33
0.0
  0
MTEXT
  5
1F67
330
1B83
100
AcDbEntity
  8
DIM
 62
     0
100
AcDbMText
 10
7.753694981247612
 20
5.768103264818376
 30
0.0
 40
0.14
 41
0.0
 46
0.0
 71
     5
 72
     1
  1
\A1;1.016
 73
     1
 44
1.0
  0
POINT
  5
1F68
330
1B83
100
AcDbEntity
  8
Defpoints
 62
     0
100
AcDbPoint
 10
7.245753231247612
 20
5.006358768616884
 30
0.0
  0
POINT
  5
1F69
330
1B83
100
AcDbEntity
  8
Defpoints
 62
     0
100
AcDbPoint
 10
8.261636731247612
 20
5.008234583853816
 30
0.0
  0
POINT
  5
1F6A
330
1B83
100
AcDbEntity
  8
Defpoints
 62
     0
100
AcDbPoint
 10
8.261636731247612
 20
5.644581850814297
 30
0.0
  0
ENDBLK
  5
1B8E
330
1B83
100
AcDbEntity
  8
0
100
AcDbBlockEnd
  0
BLOCK
  5
1BAC
330
1BA2
100
AcDbEntity
  8
0
100
AcDbBlockBegin
  2
*D6
 70
     1
 10
0.0
 20
0.0
 30
0.0
  3
*D6
  1

  0
LINE
  5
1F6B
330
1BA2
100
AcDbEntity
  8
DIM
 62
     0
370
    -2
100
AcDbLine
 10
7.813753231247615
 20
5.140531095405391
 30
0.0
 11
8.867297398682216
 21
5.140531095405391
 31
0.0
  0
LINE
  5
1F6C
330
1BA2
100
AcDbEntity
  8
DIM
 62
     0
370
    -2
100
AcDbLine
 10
8.315189231247613
 20
4.625755368525027
 30
0.0
 11
8.867297398682216
 21
4.625755368525027
 31
0.0
  0
LINE
  5
1F6D
330
1BA2
100
AcDbEntity
  8
DIM
 62
     0
370
    -2
100
AcDbLine
 10
8.807297398682216
 20
5.000531095405391
 30
0.0
 11
8.807297398682216
 21
4.765755368525026
 31
0.0
  0
LINE
  5
1F6E
330
1BA2
100
AcDbEntity
  8
DIM
 62
     0
370
    -2
100
AcDbLine
 10
8.807297398682216
 20
4.625755368525027
 30
0.0
 11
8.807297398682214
 21
3.914456932087229
 31
0.0
  0
SOLID
  5
1F6F
330
1BA2
100
AcDbEntity
  8
DIM
 62
     0
100
AcDbTrace
 10
8.783964065348882
 20
5.000531095405391
 30
0.0
 11
8.830630732015549
 21
5.000531095405391
 31
0.0
 12
8.807297398682216
 22
5.140531095405391
 32
0.0
 13
8.807297398682216
 23
5.140531095405391
 33
0.0
  0
SOLID
  5
1F70
330
1BA2
100
AcDbEntity
  8
DIM
 62
     0
100
AcDbTrace
 10
8.783964065348882
 20
4.765755368525026
 30
0.0
 11
8.830630732015549
 21
4.765755368525026
 31
0.0
 12
8.807297398682216
 22
4.625755368525027
 32
0.0
 13
8.807297398682216
 23
4.625755368525027
 33
0.0
  0
MTEXT
  5
1F71
330
1BA2
100
AcDbEntity
  8
DIM
 62
     0
100
AcDbMText
 10
8.683775984678135
 20
4.200106150306129
 30
0.0
 40
0.14
 41
0.0
 46
0.0
 71
     5
 72
     1
  1
\A1;0.515
 11
0.0000000000000001
 21
1.0
 31
0.0
 73
     1
 44
1.0
  0
POINT
  5
1F72
330
1BA2
100
AcDbEntity
  8
Defpoints
 62
     0
100
AcDbPoint
 10
7.753753231247616
 20
5.140531095405391
 30
0.0
  0
POINT
  5
1F73
330
1BA2
100
AcDbEntity
  8
Defpoints
 62
     0
100
AcDbPoint
 10
8.255189231247612
 20
4.625755368525027
 30
0.0
  0
POINT
  5
1F74
330
1BA2
100
AcDbEntity
  8
Defpoints
 62
     0
100
AcDbPoint
 10
8.807297398682216
 20
4.625755368525027
 30
0.0
  0
ENDBLK
  5
1BAD
330
1BA2
100
AcDbEntity
  8
0
100
AcDbBlockEnd
  0
BLOCK
  5
1BC6
330
1BBC
100
AcDbEntity
  8
0
100
AcDbBlockBegin
  2
*D7
 70
     1
 10
0.0
 20
0.0
 30
0.0
  3
*D7
  1

  0
LINE
  5
1F7E
330
1BBC
100
AcDbEntity
  8
DIM
 62
     0
370
    -2
100
AcDbLine
 10
2.16050655720808
 20
3.950028292409495
 30
0.0
 11
2.16050655720808
 21
3.49748468409245
 31
0.0
  0
LINE
  5
1F7F
330
1BBC
100
AcDbEntity
  8
DIM
 62
     0
370
    -2
100
AcDbLine
 10
2.825506557208079
 20
3.950028292409495
 30
0.0
 11
2.825506557208079
 21
3.49748468409245
 31
0.0
  0
LINE
  5
1F80
330
1BBC
100
AcDbEntity
  8
DIM
 62
     0
370
    -2
100
AcDbLine
 10
2.30050655720808
 20
3.55748468409245
 30
0.0
 11
2.685506557208079
 21
3.55748468409245
 31
0.0
  0
SOLID
  5
1F81
330
1BBC
100
AcDbEntity
  8
DIM
 62
     0
100
AcDbTrace
 10
2.30050655720808
 20
3.580818017425784
 30
0.0
 11
2.30050655720808
 21
3.534151350759117
 31
0.0
 12
2.16050655720808
 22
3.55748468409245
 32
0.0
 13
2.16050655720808
 23
3.55748468409245
 33
0.0
  0
SOLID
  5
1F82
330
1BBC
100
AcDbEntity
  8
DIM
 62
     0
100
AcDbTrace
 10
2.685506557208079
 20
3.580818017425784
 30
0.0
 11
2.685506557208079
 21
3.534151350759117
 31
0.0
 12
2.825506557208079
 22
3.55748468409245
 32
0.0
 13
2.825506557208079
 23
3.55748468409245
 33
0.0
  0
MTEXT
  5
1F83
330
1BBC
100
AcDbEntity
  8
DIM
 62
     0
100
AcDbMText
 10
2.493006557208079
 20
3.681006098096529
 30
0.0
 40
0.14
 41
0.0
 46
0.0
 71
     5
 72
     1
  1
\A1;0.665
 73
     1
 44
1.0
  0
POINT
  5
1F84
330
1BBC
100
AcDbEntity
  8
Defpoints
 62
     0
100
AcDbPoint
 10
2.16050655720808
 20
4.010028292409495
 30
0.0
  0
POINT
  5
1F85
330
1BBC
100
AcDbEntity
  8
Defpoints
 62
     0
100
AcDbPoint
 10
2.825506557208079
 20
4.010028292409495
 30
0.0
  0
POINT
  5
1F86
330
1BBC
100
AcDbEntity
  8
Defpoints
 62
     0
100
AcDbPoint
 10
2.825506557208079
 20
3.55748468409245
 30
0.0
  0
ENDBLK
  5
1BC7
330
1BBC
100
AcDbEntity
  8
0
100
AcDbBlockEnd
  0
BLOCK
  5
1BD5
330
1BC9
100
AcDbEntity
  8
0
100
AcDbBlockBegin
  2
*D8
 70
     1
 10
0.0
 20
0.0
 30
0.0
  3
*D8
  1

  0
LINE
  5
1F28
330
1BC9
100
AcDbEntity
  8
DIM
 62
     0
370
    -2
100
AcDbLine
 10
3.227006557208081
 20
4.625028292409496
 30
0.0
 11
3.963098856106204
 21
4.625028292409496
 31
0.0
  0
LINE
  5
1F29
330
1BC9
100
AcDbEntity
  8
DIM
 62
     0
370
    -2
100
AcDbLine
 10
3.022006557208077
 20
4.510028292409495
 30
0.0
 11
3.963098856106204
 21
4.510028292409495
 31
0.0
  0
LINE
  5
1F2A
330
1BC9
100
AcDbEntity
  8
DIM
 62
     0
370
    -2
100
AcDbLine
 10
3.903098856106204
 20
4.765028292409495
 30
0.0
 11
3.903098856106204
 21
4.905028292409496
 31
0.0
  0
LINE
  5
1F2B
330
1BC9
100
AcDbEntity
  8
DIM
 62
     0
370
    -2
100
AcDbLine
 10
3.903098856106204
 20
4.370028292409496
 30
0.0
 11
3.903098856106204
 21
3.658729855971698
 31
0.0
  0
LINE
  5
1F2C
330
1BC9
100
AcDbEntity
  8
DIM
 62
     0
370
    -2
100
AcDbLine
 10
3.903098856106204
 20
4.625028292409496
 30
0.0
 11
3.903098856106204
 21
4.510028292409495
 31
0.0
  0
SOLID
  5
1F2D
330
1BC9
100
AcDbEntity
  8
DIM
 62
     0
100
AcDbTrace
 10
3.879765522772871
 20
4.765028292409495
 30
0.0
 11
3.926432189439537
 21
4.765028292409495
 31
0.0
 12
3.903098856106204
 22
4.625028292409496
 32
0.0
 13
3.903098856106204
 23
4.625028292409496
 33
0.0
  0
SOLID
  5
1F2E
330
1BC9
100
AcDbEntity
  8
DIM
 62
     0
100
AcDbTrace
 10
3.879765522772871
 20
4.370028292409496
 30
0.0
 11
3.926432189439537
 21
4.370028292409496
 31
0.0
 12
3.903098856106204
 22
4.510028292409495
 32
0.0
 13
3.903098856106204
 23
4.510028292409495
 33
0.0
  0
MTEXT
  5
1F2F
330
1BC9
100
AcDbEntity
  8
DIM
 62
     0
100
AcDbMText
 10
3.779577442102125
 20
3.944379074190597
 30
0.0
 40
0.14
 41
0.0
 46
0.0
 71
     5
 72
     1
  1
\A1;0.115
 11
0.0000000000000001
 21
1.0
 31
0.0
 73
     1
 44
1.0
  0
POINT
  5
1F30
330
1BC9
100
AcDbEntity
  8
Defpoints
 62
     0
100
AcDbPoint
 10
3.167006557208081
 20
4.625028292409496
 30
0.0
  0
POINT
  5
1F31
330
1BC9
100
AcDbEntity
  8
Defpoints
 62
     0
100
AcDbPoint
 10
2.962006557208077
 20
4.510028292409495
 30
0.0
  0
POINT
  5
1F32
330
1BC9
100
AcDbEntity
  8
Defpoints
 62
     0
100
AcDbPoint
 10
3.903098856106204
 20
4.510028292409495
 30
0.0
  0
ENDBLK
  5
1BD6
330
1BC9
100
AcDbEntity
  8
0
100
AcDbBlockEnd
  0
BLOCK
  5
1BE2
330
1BD8
100
AcDbEntity
  8
0
100
AcDbBlockBegin
  2
*D9
 70
     1
 10
0.0
 20
0.0
 30
0.0
  3
*D9
  1

  0
LINE
  5
1F33
330
1BD8
100
AcDbEntity
  8
DIM
 62
     0
370
    -2
100
AcDbLine
 10
3.022006557208077
 20
4.510028292409495
 30
0.0
 11
3.560254835702435
 21
4.510028292409495
 31
0.0
  0
LINE
  5
1F34
330
1BD8
100
AcDbEntity
  8
DIM
 62
     0
370
    -2
100
AcDbLine
 10
2.885506557208079
 20
4.010028292409495
 30
0.0
 11
3.560254835702435
 21
4.010028292409495
 31
0.0
  0
LINE
  5
1F35
330
1BD8
100
AcDbEntity
  8
DIM
 62
     0
370
    -2
100
AcDbLine
 10
3.500254835702435
 20
4.370028292409496
 30
0.0
 11
3.500254835702435
 21
4.150028292409495
 31
0.0
  0
LINE
  5
1F36
330
1BD8
100
AcDbEntity
  8
DIM
 62
     0
370
    -2
100
AcDbLine
 10
3.500254835702435
 20
4.010028292409495
 30
0.0
 11
3.500254835702435
 21
3.29644569553662
 31
0.0
  0
SOLID
  5
1F37
330
1BD8
100
AcDbEntity
  8
DIM
 62
     0
100
AcDbTrace
 10
3.476921502369101
 20
4.370028292409496
 30
0.0
 11
3.523588169035768
 21
4.370028292409496
 31
0.0
 12
3.500254835702435
 22
4.510028292409495
 32
0.0
 13
3.500254835702435
 23
4.510028292409495
 33
0.0
  0
SOLID
  5
1F38
330
1BD8
100
AcDbEntity
  8
DIM
 62
     0
100
AcDbTrace
 10
3.476921502369101
 20
4.150028292409495
 30
0.0
 11
3.523588169035768
 21
4.150028292409495
 31
0.0
 12
3.500254835702435
 22
4.010028292409495
 32
0.0
 13
3.500254835702435
 23
4.010028292409495
 33
0.0
  0
MTEXT
  5
1F39
330
1BD8
100
AcDbEntity
  8
DIM
 62
     0
100
AcDbMText
 10
3.376733421698355
 20
3.583236993973058
 30
0.0
 40
0.14
 41
0.0
 46
0.0
 71
     5
 72
     1
  1
\A1;0.500
 11
0.0000000000000001
 21
1.0
 31
0.0
 73
     1
 44
1.0
  0
POINT
  5
1F3A
330
1BD8
100
AcDbEntity
  8
Defpoints
 62
     0
100
AcDbPoint
 10
2.962006557208077
 20
4.510028292409495
 30
0.0
  0
POINT
  5
1F3B
330
1BD8
100
AcDbEntity
  8
Defpoints
 62
     0
100
AcDbPoint
 10
2.825506557208079
 20
4.010028292409495
 30
0.0
  0
POINT
  5
1F3C
330
1BD8
100
AcDbEntity
  8
Defpoints
 62
     0
100
AcDbPoint
 10
3.500254835702435
 20
4.010028292409495
 30
0.0
  0
ENDBLK
  5
1BE3
330
1BD8
100
AcDbEntity
  8
0
100
AcDbBlockEnd
  0
BLOCK
  5
1BEF
330
1BE5
100
AcDbEntity
  8
0
100
AcDbBlockBegin
  2
*D10
 70
     1
 10
0.0
 20
0.0
 30
0.0
  3
*D10
  1

  0
LINE
  5
1F75
330
1BE5
100
AcDbEntity
  8
DIM
 62
     0
370
    -2
100
AcDbLine
 10
7.580169560367853
 20
8.773594053477999
 30
0.0
 11
8.695550935229398
 21
9.888975428339549
 31
0.0
  0
LINE
  5
1F76
330
1BE5
100
AcDbEntity
  8
DIM
 62
     0
370
    -2
100
AcDbLine
 10
8.287276341554406
 20
8.06648727229145
 30
0.0
 11
9.402657716415951
 21
9.181868647152999
 31
0.0
  0
LINE
  5
1F77
330
1BE5
100
AcDbEntity
  8
DIM
 62
     0
370
    -2
100
AcDbLine
 10
8.752119477724322
 20
9.747554072102239
 30
0.0
 11
9.261236360178642
 21
9.238437189647921
 31
0.0
  0
SOLID
  5
1F78
330
1BE5
100
AcDbEntity
  8
DIM
 62
     0
100
AcDbTrace
 10
8.768618635952009
 20
9.764053230329926
 30
0.0
 11
8.735620319496636
 21
9.731054913874555
 31
0.0
 12
8.653124528358205
 22
9.846549021468355
 32
0.0
 13
8.653124528358205
 23
9.846549021468355
 33
0.0
  0
SOLID
  5
1F79
330
1BE5
100
AcDbEntity
  8
DIM
 62
     0
100
AcDbTrace
 10
9.277735518406329
 20
9.254936347875608
 30
0.0
 11
9.244737201950956
 21
9.221938031420236
 31
0.0
 12
9.360231309544758
 22
9.139442240281805
 32
0.0
 13
9.360231309544758
 23
9.139442240281805
 33
0.0
  0
MTEXT
  5
1F7A
330
1BE5
100
AcDbEntity
  8
DIM
 62
     0
100
AcDbMText
 10
9.094020748415516
 20
9.580338460339117
 30
0.0
 40
0.14
 41
0.0
 46
0.0
 71
     5
 72
     1
  1
\A1;1.000
 11
0.7071067811865495
 21
-0.7071067811865456
 31
0.0
 73
     1
 44
1.0
  0
POINT
  5
1F7B
330
1BE5
100
AcDbEntity
  8
Defpoints
 62
     0
100
AcDbPoint
 10
7.537743153496661
 20
8.731167646606806
 30
0.0
  0
POINT
  5
1F7C
330
1BE5
100
AcDbEntity
  8
Defpoints
 62
     0
100
AcDbPoint
 10
8.244849934683214
 20
8.024060865420256
 30
0.0
  0
POINT
  5
1F7D
330
1BE5
100
AcDbEntity
  8
Defpoints
 62
     0
100
AcDbPoint
 10
9.360231309544758
 20
9.139442240281805
 30
0.0
  0
ENDBLK
  5
1BF0
330
1BE5
100
AcDbEntity
  8
0
100
AcDbBlockEnd
  0
BLOCK
  5
1CF1
330
1CE7
100
AcDbEntity
  8
0
100
AcDbBlockBegin
  2
*D11
 70
     1
 10
0.0
 20
0.0
 30
0.0
  3
*D11
  1

  0
LINE
  5
1F3D
330
1CE7
100
AcDbEntity
  8
DIM
 62
     0
370
    -2
100
AcDbLine
 10
1.496923605379986
 20
5.197737619197961
 30
0.0
 11
1.496923605379986
 21
5.60288305328816
 31
0.0
  0
LINE
  5
1F3E
330
1CE7
100
AcDbEntity
  8
DIM
 62
     0
370
    -2
100
AcDbLine
 10
3.167006557208081
 20
5.06811858779901
 30
0.0
 11
3.167006557208081
 21
5.602883053288161
 31
0.0
  0
LINE
  5
1F3F
330
1CE7
100
AcDbEntity
  8
DIM
 62
     0
370
    -2
100
AcDbLine
 10
1.636923605379986
 20
5.542883053288161
 30
0.0
 11
3.027006557208081
 21
5.542883053288161
 31
0.0
  0
SOLID
  5
1F40
330
1CE7
100
AcDbEntity
  8
DIM
 62
     0
100
AcDbTrace
 10
1.636923605379986
 20
5.566216386621494
 30
0.0
 11
1.636923605379986
 21
5.519549719954827
 31
0.0
 12
1.496923605379986
 22
5.542883053288161
 32
0.0
 13
1.496923605379986
 23
5.542883053288161
 33
0.0
  0
SOLID
  5
1F41
330
1CE7
100
AcDbEntity
  8
DIM
 62
     0
100
AcDbTrace
 10
3.027006557208081
 20
5.566216386621494
 30
0.0
 11
3.027006557208081
 21
5.519549719954827
 31
0.0
 12
3.167006557208081
 22
5.542883053288161
 32
0.0
 13
3.167006557208081
 23
5.542883053288161
 33
0.0
  0
MTEXT
  5
1F42
330
1CE7
100
AcDbEntity
  8
DIM
 62
     0
100
AcDbMText
 10
2.331965081294034
 20
5.66640446729224
 30
0.0
 40
0.14
 41
0.0
 46
0.0
 71
     5
 72
     1
  1
\A1;1.670
 73
     1
 44
1.0
  0
POINT
  5
1F43
330
1CE7
100
AcDbEntity
  8
Defpoints
 62
     0
100
AcDbPoint
 10
1.496923605379986
 20
5.137737619197961
 30
0.0
  0
POINT
  5
1F44
330
1CE7
100
AcDbEntity
  8
Defpoints
 62
     0
100
AcDbPoint
 10
3.167006557208081
 20
5.00811858779901
 30
0.0
  0
POINT
  5
1F45
330
1CE7
100
AcDbEntity
  8
Defpoints
 62
     0
100
AcDbPoint
 10
3.167006557208081
 20
5.542883053288161
 30
0.0
  0
ENDBLK
  5
1CF2
330
1CE7
100
AcDbEntity
  8
0
100
AcDbBlockEnd
  0
ENDSEC
  0
SECTION
  2
ENTITIES
  0
LWPOLYLINE
  5
43D
330
1F
100
AcDbEntity
  8
FORMAT
370
    15
100
AcDbPolyline
 90
        4
 70
     1
 43
0.0
 10
0.0
 20
0.0
 10
14.0715579263031
 20
0.0
 10
14.0715579263031
 20
10.65613124516161
 10
0.0
 20
10.65613124516161
  0
LINE
  5
43E
330
1F
100
AcDbEntity
  8
FORMAT
370
    15
100
AcDbLine
 10
5.547853743032689
 20
1.656131245161617
 30
0.0
 11
14.0715579263031
 21
1.656131245161617
 31
0.0
  0
LINE
  5
43F
330
1F
100
AcDbEntity
  8
FORMAT
370
    15
100
AcDbLine
 10
0.0
 20
1.656131245161617
 30
0.0
 11
5.547853743032689
 21
1.656131245161617
 31
0.0
  0
LINE
  5
440
330
1F
100
AcDbEntity
  8
FORMAT
370
    15
100
AcDbLine
 10
8.16247059151153
 20
0.8684682451003009
 30
0.0
 11
5.547853743032689
 21
0.8684682451003009
 31
0.0
  0
LINE
  5
441
330
1F
100
AcDbEntity
  8
FORMAT
370
    15
100
AcDbLine
 10
8.16247059151153
 20
1.656131245161617
 30
0.0
 11
8.16247059151153
 21
0.0
 31
0.0
  0
LINE
  5
442
330
1F
100
AcDbEntity
  8
FORMAT
370
    15
100
AcDbLine
 10
11.9918038504972
 20
1.656131245161617
 30
0.0
 11
11.9918038504972
 21
0.8684682451003009
 31
0.0
  0
LINE
  5
443
330
1F
100
AcDbEntity
  8
FORMAT
370
    15
100
AcDbLine
 10
14.0715579263031
 20
0.5177654686665086
 30
0.0
 11
11.16601574061803
 21
0.5177654686665086
 31
0.0
  0
LINE
  5
444
330
1F
100
AcDbEntity
  8
FORMAT
370
    15
100
AcDbLine
 10
11.16601574061803
 20
0.0
 30
0.0
 11
11.16601574061803
 21
0.8684682451003009
 31
0.0
  0
LINE
  5
445
330
1F
100
AcDbEntity
  8
FORMAT
370
    15
100
AcDbLine
 10
11.96667108812496
 20
10.65613124516161
 30
0.0
 11
11.96667108812496
 21
10.28432333804633
 31
0.0
  0
LINE
  5
446
330
1F
100
AcDbEntity
  8
FORMAT
370
    15
100
AcDbLine
 10
14.0715579263031
 20
0.8684682451003009
 30
0.0
 11
8.16247059151153
 21
0.8684682451003009
 31
0.0
  0
LINE
  5
447
330
1F
100
AcDbEntity
  8
FORMAT
370
    15
100
AcDbLine
 10
11.96667108812496
 20
10.28432333804633
 30
0.0
 11
14.0715579263031
 21
10.28432333804633
 31
0.0
  0
LINE
  5
448
330
1F
100
AcDbEntity
  8
FORMAT
370
    15
100
AcDbLine
 10
5.547853743032689
 20
1.656131245161617
 30
0.0
 11
5.547853743032689
 21
0.0
 31
0.0
  0
MTEXT
  5
449
330
1F
100
AcDbEntity
  8
0
  6
Continuous
 62
   160
370
     0
100
AcDbMText
 10
11.32050064606779
 20
0.8114683467698512
 30
0.0
 40
0.1138475560380527
 41
0.0
 46
0.0
 71
     1
 72
     1
  1
http://www.amazonsupply.com
  7
SLDTEXTSTYLE0
 73
     1
 44
1.0
1001
PE_URL
1000
http://www.amazonsupply.com/
1002
{
1000
http://www.amazonsupply.com/
1002
{
1071
        1
1002
}
1002
}
  0
INSERT
  5
44A
330
1F
100
AcDbEntity
  8
0
  6
Continuous
 62
     7
100
AcDbBlockReference
  2
Block2
 10
-0.6242630362076057
 20
-1.652903041087823
 30
0.0
 41
1.366170672456669
 42
1.366170672456612
 43
1.366170672456618
  0
TEXT
  5
44B
330
1F
100
AcDbEntity
  8
FORMAT
 62
     7
100
AcDbText
 10
8.215891665659508
 20
1.45652973405867
 30
0.0
 40
0.1366170672456618
  1
MATERIAL :
 41
0.9
  7
SLDTEXTSTYLE1
100
AcDbText
  0
TEXT
  5
44C
330
1F
100
AcDbEntity
  8
FORMAT
 62
     7
100
AcDbText
 10
6.014251363219866
 20
1.079741854144919
 30
0.0
 40
0.1707713340570772
  1
B005T760YE
 41
0.9
  7
SLDTEXTSTYLE1
100
AcDbText
  0
TEXT
  5
44D
330
1F
100
AcDbEntity
  8
FORMAT
 62
     7
100
AcDbText
 10
12.27948312500297
 20
10.36980263574093
 30
0.0
 40
0.1707713340570772
  1
B005T760YE
  7
SLDTEXTSTYLE1
100
AcDbText
  0
TEXT
  5
44E
330
1F
100
AcDbEntity
  8
FORMAT
 62
     7
100
AcDbText
 10
6.015947719462694
 20
0.2531453574280622
 30
0.0
 40
0.1707713340570772
  1
BUD Industries 
 41
0.9
  7
SLDTEXTSTYLE1
100
AcDbText
  0
TEXT
  5
44F
330
1F
100
AcDbEntity
  8
FORMAT
 62
     0
100
AcDbText
 10
8.879129856090994
 20
1.120282925828025
 30
0.0
 40
0.170771334057079
  1
Plastic 
 41
0.9
  7
SLDTEXTSTYLE1
100
AcDbText
  0
TEXT
  5
450
330
1F
100
AcDbEntity
  8
FORMAT
 62
     7
100
AcDbText
 10
0.1407178983550446
 20
1.283099681457062
 30
0.0
 40
0.1366170672456618
  1
ITEM NAME:
 41
0.9
  7
SLDTEXTSTYLE1
100
AcDbText
  0
TEXT
  5
451
330
1F
100
AcDbEntity
  8
FORMAT
 62
     7
100
AcDbText
 10
5.65478380915966
 20
1.391203829622323
 30
0.0
 40
0.1366170672456618
  1
ASIN :
 41
0.9
  7
SLDTEXTSTYLE1
100
AcDbText
  0
TEXT
  5
453
330
1F
100
AcDbEntity
  8
FORMAT
 62
     0
100
AcDbText
 10
8.268063971102449
 20
0.6389862617328151
 30
0.0
 40
0.0853856670285395
  1
# UNLESS OTHERWISE SPECIFIED
 41
0.95
  7
SLDTEXTSTYLE1
100
AcDbText
  0
TEXT
  5
454
330
1F
100
AcDbEntity
  8
FORMAT
 62
     0
100
AcDbText
 10
8.396360144147861
 20
0.5099826892442572
 30
0.0
 40
0.0853856670285395
  1
DIMENSIONS ARE IN INCHES
 41
0.95
  7
SLDTEXTSTYLE1
100
AcDbText
  0
TEXT
  5
455
330
1F
100
AcDbEntity
  8
FORMAT
 62
     0
100
AcDbText
 10
8.268063971102449
 20
0.2588279386420438
 30
0.0
 40
0.0853856670285395
  1
# INFORMATION IN THIS DRAWING IS PROVIDED FOR
 41
0.95
  7
SLDTEXTSTYLE1
100
AcDbText
  0
TEXT
  5
456
330
1F
100
AcDbEntity
  8
FORMAT
 62
     0
100
AcDbText
 10
8.396011868143668
 20
0.1298243661534868
 30
0.0
 40
0.0853856670285395
  1
REFERENCE ONLY
 41
0.95
  7
SLDTEXTSTYLE1
100
AcDbText
  0
TEXT
  5
457
330
1F
100
AcDbEntity
  8
FORMAT
 62
     7
100
AcDbText
 10
5.623515130528041
 20
0.5893637829339427
 30
0.0
 40
0.1366170672456618
  1
BRAND :
 41
0.9
  7
SLDTEXTSTYLE1
100
AcDbText
  0
MTEXT
  5
50B
330
1F
100
AcDbEntity
  8
FORMAT
 62
     7
100
AcDbMText
 10
0.5204098346319439
 20
1.138896885973017
 30
0.0
 40
0.1707713340570772
 41
4.821341341560948
 46
0.0
 71
     1
 72
     1
  1
{\fCalibri|b0|i0|c0|p34;\H0.9167x;\C256;BUD Industries NBX-10911 Plastic NEMA Box Air and Moisture Vent, A Mounting Style}
  7
SLDTEXTSTYLE1
 73
     1
 44
1.0
  0
INSERT
  5
B8E
330
1F
100
AcDbEntity
  8
0
100
AcDbBlockReference
  2
amazon block
 10
11.43217577417131
 20
0.156582002036612
 30
0.0
 41
1.3
 42
1.299999999999999
 43
1.3
  0
LINE
  5
F3C
330
1F
100
AcDbEntity
  8
0
  6
Continuous
 62
     7
370
    15
100
AcDbLine
 10
7.313636731247613
 20
3.512821768616923
 30
0.0
 11
7.313636731247613
 21
3.452821768616924
 31
0.0
  0
LINE
  5
F3D
330
1F
100
AcDbEntity
  8
0
  6
Continuous
 62
     7
370
    15
100
AcDbLine
 10
8.193636731247615
 20
3.452821768616924
 30
0.0
 11
8.193636731247615
 21
3.512821768616923
 31
0.0
  0
LINE
  5
F3E
330
1F
100
AcDbEntity
  8
0
  6
Continuous
 62
     7
370
    15
100
AcDbLine
 10
7.284636731247613
 20
4.627821768616925
 30
0.0
 11
7.284636731247613
 21
4.512821768616925
 31
0.0
  0
LINE
  5
F3F
330
1F
100
AcDbEntity
  8
0
  6
Continuous
 62
     7
370
    15
100
AcDbLine
 10
8.222636731247611
 20
4.512821768616925
 30
0.0
 11
8.222636731247611
 21
4.627821768616925
 31
0.0
  0
LINE
  5
F40
330
1F
100
AcDbEntity
  8
0
  6
Continuous
 62
     7
370
    15
100
AcDbLine
 10
8.086136731247616
 20
4.027254738377045
 30
0.0
 11
8.067834097987027
 21
4.037821768616923
 31
0.0
  0
LINE
  5
F41
330
1F
100
AcDbEntity
  8
0
  6
Continuous
 62
     7
370
    15
100
AcDbLine
 10
7.4394393645082
 20
4.037821768616923
 30
0.0
 11
7.421136731247615
 21
4.027254738377045
 31
0.0
  0
LINE
  5
F42
330
1F
100
AcDbEntity
  8
0
  6
Continuous
 62
     7
370
    15
100
AcDbLine
 10
7.421136731247615
 20
4.048388798856803
 30
0.0
 11
7.4394393645082
 21
4.037821768616923
 31
0.0
  0
LINE
  5
F43
330
1F
100
AcDbEntity
  8
0
  6
Continuous
 62
     7
370
    15
100
AcDbLine
 10
8.067834097987027
 20
4.037821768616923
 30
0.0
 11
8.086136731247616
 21
4.048388798856803
 31
0.0
  0
LINE
  5
F44
330
1F
100
AcDbEntity
  8
0
  6
Continuous
 62
     7
370
    15
100
AcDbLine
 10
7.421136731247615
 20
4.108388798856802
 30
0.0
 11
7.4394393645082
 21
4.097821768616924
 31
0.0
  0
LINE
  5
F45
330
1F
100
AcDbEntity
  8
0
  6
Continuous
 62
     7
370
    15
100
AcDbLine
 10
8.067834097987027
 20
4.097821768616924
 30
0.0
 11
8.086136731247616
 21
4.108388798856802
 31
0.0
  0
LINE
  5
F46
330
1F
100
AcDbEntity
  8
0
  6
Continuous
 62
     7
370
    15
100
AcDbLine
 10
7.421136731247615
 20
4.408388798856803
 30
0.0
 11
7.4394393645082
 21
4.397821768616925
 31
0.0
  0
LINE
  5
F47
330
1F
100
AcDbEntity
  8
0
  6
Continuous
 62
     7
370
    15
100
AcDbLine
 10
8.067834097987027
 20
4.397821768616925
 30
0.0
 11
8.086136731247616
 21
4.408388798856803
 31
0.0
  0
LINE
  5
F48
330
1F
100
AcDbEntity
  8
0
  6
Continuous
 62
     7
370
    15
100
AcDbLine
 10
8.086136731247616
 20
4.417254738377046
 30
0.0
 11
8.067834097987027
 21
4.427821768616924
 31
0.0
  0
LINE
  5
F49
330
1F
100
AcDbEntity
  8
0
  6
Continuous
 62
     7
370
    15
100
AcDbLine
 10
7.4394393645082
 20
4.427821768616924
 30
0.0
 11
7.421136731247615
 21
4.417254738377046
 31
0.0
  0
LINE
  5
F4A
330
1F
100
AcDbEntity
  8
0
  6
Continuous
 62
     7
370
    15
100
AcDbLine
 10
8.086136731247616
 20
4.387254738377045
 30
0.0
 11
8.067834097987027
 21
4.397821768616925
 31
0.0
  0
LINE
  5
F4B
330
1F
100
AcDbEntity
  8
0
  6
Continuous
 62
     7
370
    15
100
AcDbLine
 10
7.4394393645082
 20
4.397821768616925
 30
0.0
 11
7.421136731247615
 21
4.387254738377045
 31
0.0
  0
LINE
  5
F4C
330
1F
100
AcDbEntity
  8
0
  6
Continuous
 62
     7
370
    15
100
AcDbLine
 10
8.086136731247616
 20
4.087254738377046
 30
0.0
 11
8.067834097987027
 21
4.097821768616924
 31
0.0
  0
LINE
  5
F4D
330
1F
100
AcDbEntity
  8
0
  6
Continuous
 62
     7
370
    15
100
AcDbLine
 10
7.4394393645082
 20
4.097821768616924
 30
0.0
 11
7.421136731247615
 21
4.087254738377046
 31
0.0
  0
LINE
  5
F4E
330
1F
100
AcDbEntity
  8
0
  6
Continuous
 62
     7
370
    15
100
AcDbLine
 10
7.421136731247615
 20
4.468388798856803
 30
0.0
 11
7.4394393645082
 21
4.457821768616923
 31
0.0
  0
LINE
  5
F4F
330
1F
100
AcDbEntity
  8
0
  6
Continuous
 62
     7
370
    15
100
AcDbLine
 10
8.067834097987027
 20
4.457821768616923
 30
0.0
 11
8.086136731247616
 21
4.468388798856803
 31
0.0
  0
LINE
  5
F50
330
1F
100
AcDbEntity
  8
0
  6
Continuous
 62
     7
370
    15
100
AcDbLine
 10
7.421136731247615
 20
4.237254738377044
 30
0.0
 11
7.421136731247615
 21
4.228388798856801
 31
0.0
  0
LINE
  5
F51
330
1F
100
AcDbEntity
  8
0
  6
Continuous
 62
     7
370
    15
100
AcDbLine
 10
8.086136731247616
 20
4.228388798856801
 30
0.0
 11
8.086136731247616
 21
4.237254738377044
 31
0.0
  0
LINE
  5
F52
330
1F
100
AcDbEntity
  8
0
  6
Continuous
 62
     7
370
    15
100
AcDbLine
 10
7.421136731247615
 20
4.387254738377045
 30
0.0
 11
7.421136731247615
 21
4.378388798856803
 31
0.0
  0
LINE
  5
F53
330
1F
100
AcDbEntity
  8
0
  6
Continuous
 62
     7
370
    15
100
AcDbLine
 10
8.086136731247616
 20
4.378388798856803
 30
0.0
 11
8.086136731247616
 21
4.387254738377045
 31
0.0
  0
LINE
  5
F54
330
1F
100
AcDbEntity
  8
0
  6
Continuous
 62
     7
370
    15
100
AcDbLine
 10
7.421136731247615
 20
4.357254738377045
 30
0.0
 11
7.421136731247615
 21
4.348388798856802
 31
0.0
  0
LINE
  5
F55
330
1F
100
AcDbEntity
  8
0
  6
Continuous
 62
     7
370
    15
100
AcDbLine
 10
8.086136731247616
 20
4.348388798856802
 30
0.0
 11
8.086136731247616
 21
4.357254738377045
 31
0.0
  0
LINE
  5
F56
330
1F
100
AcDbEntity
  8
0
  6
Continuous
 62
     7
370
    15
100
AcDbLine
 10
7.421136731247615
 20
4.438388798856802
 30
0.0
 11
7.4394393645082
 21
4.427821768616924
 31
0.0
  0
LINE
  5
F57
330
1F
100
AcDbEntity
  8
0
  6
Continuous
 62
     7
370
    15
100
AcDbLine
 10
8.067834097987027
 20
4.427821768616924
 30
0.0
 11
8.086136731247616
 21
4.438388798856802
 31
0.0
  0
LINE
  5
F58
330
1F
100
AcDbEntity
  8
0
  6
Continuous
 62
     7
370
    15
100
AcDbLine
 10
7.421136731247615
 20
4.057254738377046
 30
0.0
 11
7.421136731247615
 21
4.048388798856803
 31
0.0
  0
LINE
  5
F59
330
1F
100
AcDbEntity
  8
0
  6
Continuous
 62
     7
370
    15
100
AcDbLine
 10
8.086136731247616
 20
4.048388798856803
 30
0.0
 11
8.086136731247616
 21
4.057254738377046
 31
0.0
  0
LINE
  5
F5A
330
1F
100
AcDbEntity
  8
0
  6
Continuous
 62
     7
370
    15
100
AcDbLine
 10
7.421136731247615
 20
4.378388798856803
 30
0.0
 11
7.4394393645082
 21
4.367821768616924
 31
0.0
  0
LINE
  5
F5B
330
1F
100
AcDbEntity
  8
0
  6
Continuous
 62
     7
370
    15
100
AcDbLine
 10
8.067834097987027
 20
4.367821768616924
 30
0.0
 11
8.086136731247616
 21
4.378388798856803
 31
0.0
  0
LINE
  5
F5C
330
1F
100
AcDbEntity
  8
0
  6
Continuous
 62
     7
370
    15
100
AcDbLine
 10
7.421136731247615
 20
4.417254738377046
 30
0.0
 11
7.421136731247615
 21
4.408388798856803
 31
0.0
  0
LINE
  5
F5D
330
1F
100
AcDbEntity
  8
0
  6
Continuous
 62
     7
370
    15
100
AcDbLine
 10
8.086136731247616
 20
4.408388798856803
 30
0.0
 11
8.086136731247616
 21
4.417254738377046
 31
0.0
  0
LINE
  5
F5E
330
1F
100
AcDbEntity
  8
0
  6
Continuous
 62
     7
370
    15
100
AcDbLine
 10
7.421136731247615
 20
4.078388798856803
 30
0.0
 11
7.4394393645082
 21
4.067821768616925
 31
0.0
  0
LINE
  5
F5F
330
1F
100
AcDbEntity
  8
0
  6
Continuous
 62
     7
370
    15
100
AcDbLine
 10
8.067834097987027
 20
4.067821768616925
 30
0.0
 11
8.086136731247616
 21
4.078388798856803
 31
0.0
  0
LINE
  5
F60
330
1F
100
AcDbEntity
  8
0
  6
Continuous
 62
     7
370
    15
100
AcDbLine
 10
7.421136731247615
 20
4.027254738377045
 30
0.0
 11
7.421136731247615
 21
4.012821768616925
 31
0.0
  0
LINE
  5
F61
330
1F
100
AcDbEntity
  8
0
  6
Continuous
 62
     7
370
    15
100
AcDbLine
 10
8.086136731247616
 20
4.012821768616925
 30
0.0
 11
8.086136731247616
 21
4.027254738377045
 31
0.0
  0
LINE
  5
F62
330
1F
100
AcDbEntity
  8
0
  6
Continuous
 62
     7
370
    15
100
AcDbLine
 10
7.421136731247615
 20
4.228388798856801
 30
0.0
 11
7.4394393645082
 21
4.217821768616923
 31
0.0
  0
LINE
  5
F63
330
1F
100
AcDbEntity
  8
0
  6
Continuous
 62
     7
370
    15
100
AcDbLine
 10
8.067834097987027
 20
4.217821768616923
 30
0.0
 11
8.086136731247616
 21
4.228388798856801
 31
0.0
  0
LINE
  5
F64
330
1F
100
AcDbEntity
  8
0
  6
Continuous
 62
     7
370
    15
100
AcDbLine
 10
8.086136731247616
 20
4.237254738377044
 30
0.0
 11
8.067834097987027
 21
4.247821768616923
 31
0.0
  0
LINE
  5
F65
330
1F
100
AcDbEntity
  8
0
  6
Continuous
 62
     7
370
    15
100
AcDbLine
 10
7.4394393645082
 20
4.247821768616923
 30
0.0
 11
7.421136731247615
 21
4.237254738377044
 31
0.0
  0
LINE
  5
F66
330
1F
100
AcDbEntity
  8
0
  6
Continuous
 62
     7
370
    15
100
AcDbLine
 10
8.086136731247616
 20
4.447254738377045
 30
0.0
 11
8.067834097987027
 21
4.457821768616923
 31
0.0
  0
LINE
  5
F67
330
1F
100
AcDbEntity
  8
0
  6
Continuous
 62
     7
370
    15
100
AcDbLine
 10
7.4394393645082
 20
4.457821768616923
 30
0.0
 11
7.421136731247615
 21
4.447254738377045
 31
0.0
  0
LINE
  5
F68
330
1F
100
AcDbEntity
  8
0
  6
Continuous
 62
     7
370
    15
100
AcDbLine
 10
8.086136731247616
 20
4.267254738377044
 30
0.0
 11
8.067834097987027
 21
4.277821768616925
 31
0.0
  0
LINE
  5
F69
330
1F
100
AcDbEntity
  8
0
  6
Continuous
 62
     7
370
    15
100
AcDbLine
 10
7.4394393645082
 20
4.277821768616925
 30
0.0
 11
7.421136731247615
 21
4.267254738377044
 31
0.0
  0
LINE
  5
F6A
330
1F
100
AcDbEntity
  8
0
  6
Continuous
 62
     7
370
    15
100
AcDbLine
 10
7.421136731247615
 20
4.288388798856804
 30
0.0
 11
7.4394393645082
 21
4.277821768616925
 31
0.0
  0
LINE
  5
F6B
330
1F
100
AcDbEntity
  8
0
  6
Continuous
 62
     7
370
    15
100
AcDbLine
 10
8.067834097987027
 20
4.277821768616925
 30
0.0
 11
8.086136731247616
 21
4.288388798856804
 31
0.0
  0
LINE
  5
F6C
330
1F
100
AcDbEntity
  8
0
  6
Continuous
 62
     7
370
    15
100
AcDbLine
 10
8.086136731247616
 20
4.117254738377045
 30
0.0
 11
8.067834097987027
 21
4.127821768616923
 31
0.0
  0
LINE
  5
F6D
330
1F
100
AcDbEntity
  8
0
  6
Continuous
 62
     7
370
    15
100
AcDbLine
 10
7.4394393645082
 20
4.127821768616923
 30
0.0
 11
7.421136731247615
 21
4.117254738377045
 31
0.0
  0
LINE
  5
F6E
330
1F
100
AcDbEntity
  8
0
  6
Continuous
 62
     7
370
    15
100
AcDbLine
 10
7.421136731247615
 20
4.138388798856803
 30
0.0
 11
7.4394393645082
 21
4.127821768616923
 31
0.0
  0
LINE
  5
F6F
330
1F
100
AcDbEntity
  8
0
  6
Continuous
 62
     7
370
    15
100
AcDbLine
 10
8.067834097987027
 20
4.127821768616923
 30
0.0
 11
8.086136731247616
 21
4.138388798856803
 31
0.0
  0
LINE
  5
F70
330
1F
100
AcDbEntity
  8
0
  6
Continuous
 62
     7
370
    15
100
AcDbLine
 10
7.421136731247615
 20
4.087254738377046
 30
0.0
 11
7.421136731247615
 21
4.078388798856803
 31
0.0
  0
LINE
  5
F71
330
1F
100
AcDbEntity
  8
0
  6
Continuous
 62
     7
370
    15
100
AcDbLine
 10
8.086136731247616
 20
4.078388798856803
 30
0.0
 11
8.086136731247616
 21
4.087254738377046
 31
0.0
  0
LINE
  5
F72
330
1F
100
AcDbEntity
  8
0
  6
Continuous
 62
     7
370
    15
100
AcDbLine
 10
8.086136731247616
 20
4.057254738377046
 30
0.0
 11
8.067834097987027
 21
4.067821768616925
 31
0.0
  0
LINE
  5
F73
330
1F
100
AcDbEntity
  8
0
  6
Continuous
 62
     7
370
    15
100
AcDbLine
 10
7.4394393645082
 20
4.067821768616925
 30
0.0
 11
7.421136731247615
 21
4.057254738377046
 31
0.0
  0
LINE
  5
F74
330
1F
100
AcDbEntity
  8
0
  6
Continuous
 62
     7
370
    15
100
AcDbLine
 10
8.086136731247616
 20
4.177254738377046
 30
0.0
 11
8.067834097987027
 21
4.187821768616924
 31
0.0
  0
LINE
  5
F75
330
1F
100
AcDbEntity
  8
0
  6
Continuous
 62
     7
370
    15
100
AcDbLine
 10
7.4394393645082
 20
4.187821768616924
 30
0.0
 11
7.421136731247615
 21
4.177254738377046
 31
0.0
  0
LINE
  5
F76
330
1F
100
AcDbEntity
  8
0
  6
Continuous
 62
     7
370
    15
100
AcDbLine
 10
7.421136731247615
 20
4.198388798856802
 30
0.0
 11
7.4394393645082
 21
4.187821768616924
 31
0.0
  0
LINE
  5
F77
330
1F
100
AcDbEntity
  8
0
  6
Continuous
 62
     7
370
    15
100
AcDbLine
 10
8.067834097987027
 20
4.187821768616924
 30
0.0
 11
8.086136731247616
 21
4.198388798856802
 31
0.0
  0
LINE
  5
F78
330
1F
100
AcDbEntity
  8
0
  6
Continuous
 62
     7
370
    15
100
AcDbLine
 10
8.086136731247616
 20
4.207254738377045
 30
0.0
 11
8.067834097987027
 21
4.217821768616923
 31
0.0
  0
LINE
  5
F79
330
1F
100
AcDbEntity
  8
0
  6
Continuous
 62
     7
370
    15
100
AcDbLine
 10
7.4394393645082
 20
4.217821768616923
 30
0.0
 11
7.421136731247615
 21
4.207254738377045
 31
0.0
  0
LINE
  5
F7A
330
1F
100
AcDbEntity
  8
0
  6
Continuous
 62
     7
370
    15
100
AcDbLine
 10
7.421136731247615
 20
4.318388798856803
 30
0.0
 11
7.4394393645082
 21
4.307821768616925
 31
0.0
  0
LINE
  5
F7B
330
1F
100
AcDbEntity
  8
0
  6
Continuous
 62
     7
370
    15
100
AcDbLine
 10
8.067834097987027
 20
4.307821768616925
 30
0.0
 11
8.086136731247616
 21
4.318388798856803
 31
0.0
  0
LINE
  5
F7C
330
1F
100
AcDbEntity
  8
0
  6
Continuous
 62
     7
370
    15
100
AcDbLine
 10
8.086136731247616
 20
4.327254738377046
 30
0.0
 11
8.067834097987027
 21
4.337821768616924
 31
0.0
  0
LINE
  5
F7D
330
1F
100
AcDbEntity
  8
0
  6
Continuous
 62
     7
370
    15
100
AcDbLine
 10
7.4394393645082
 20
4.337821768616924
 30
0.0
 11
7.421136731247615
 21
4.327254738377046
 31
0.0
  0
LINE
  5
F7E
330
1F
100
AcDbEntity
  8
0
  6
Continuous
 62
     7
370
    15
100
AcDbLine
 10
7.421136731247615
 20
4.258388798856804
 30
0.0
 11
7.4394393645082
 21
4.247821768616923
 31
0.0
  0
LINE
  5
F7F
330
1F
100
AcDbEntity
  8
0
  6
Continuous
 62
     7
370
    15
100
AcDbLine
 10
8.067834097987027
 20
4.247821768616923
 30
0.0
 11
8.086136731247616
 21
4.258388798856804
 31
0.0
  0
LINE
  5
F80
330
1F
100
AcDbEntity
  8
0
  6
Continuous
 62
     7
370
    15
100
AcDbLine
 10
7.421136731247615
 20
4.297254738377047
 30
0.0
 11
7.421136731247615
 21
4.288388798856804
 31
0.0
  0
LINE
  5
F81
330
1F
100
AcDbEntity
  8
0
  6
Continuous
 62
     7
370
    15
100
AcDbLine
 10
8.086136731247616
 20
4.288388798856804
 30
0.0
 11
8.086136731247616
 21
4.297254738377047
 31
0.0
  0
LINE
  5
F82
330
1F
100
AcDbEntity
  8
0
  6
Continuous
 62
     7
370
    15
100
AcDbLine
 10
7.421136731247615
 20
4.267254738377044
 30
0.0
 11
7.421136731247615
 21
4.258388798856804
 31
0.0
  0
LINE
  5
F83
330
1F
100
AcDbEntity
  8
0
  6
Continuous
 62
     7
370
    15
100
AcDbLine
 10
8.086136731247616
 20
4.258388798856804
 30
0.0
 11
8.086136731247616
 21
4.267254738377044
 31
0.0
  0
LINE
  5
F84
330
1F
100
AcDbEntity
  8
0
  6
Continuous
 62
     7
370
    15
100
AcDbLine
 10
8.086136731247616
 20
4.297254738377047
 30
0.0
 11
8.067834097987027
 21
4.307821768616925
 31
0.0
  0
LINE
  5
F85
330
1F
100
AcDbEntity
  8
0
  6
Continuous
 62
     7
370
    15
100
AcDbLine
 10
7.4394393645082
 20
4.307821768616925
 30
0.0
 11
7.421136731247615
 21
4.297254738377047
 31
0.0
  0
LINE
  5
F86
330
1F
100
AcDbEntity
  8
0
  6
Continuous
 62
     7
370
    15
100
AcDbLine
 10
7.421136731247615
 20
4.207254738377045
 30
0.0
 11
7.421136731247615
 21
4.198388798856802
 31
0.0
  0
LINE
  5
F87
330
1F
100
AcDbEntity
  8
0
  6
Continuous
 62
     7
370
    15
100
AcDbLine
 10
8.086136731247616
 20
4.198388798856802
 30
0.0
 11
8.086136731247616
 21
4.207254738377045
 31
0.0
  0
LINE
  5
F88
330
1F
100
AcDbEntity
  8
0
  6
Continuous
 62
     7
370
    15
100
AcDbLine
 10
7.421136731247615
 20
4.177254738377046
 30
0.0
 11
7.421136731247615
 21
4.168388798856803
 31
0.0
  0
LINE
  5
F89
330
1F
100
AcDbEntity
  8
0
  6
Continuous
 62
     7
370
    15
100
AcDbLine
 10
8.086136731247616
 20
4.168388798856803
 30
0.0
 11
8.086136731247616
 21
4.177254738377046
 31
0.0
  0
LINE
  5
F8A
330
1F
100
AcDbEntity
  8
0
  6
Continuous
 62
     7
370
    15
100
AcDbLine
 10
7.421136731247615
 20
4.348388798856802
 30
0.0
 11
7.4394393645082
 21
4.337821768616924
 31
0.0
  0
LINE
  5
F8B
330
1F
100
AcDbEntity
  8
0
  6
Continuous
 62
     7
370
    15
100
AcDbLine
 10
8.067834097987027
 20
4.337821768616924
 30
0.0
 11
8.086136731247616
 21
4.348388798856802
 31
0.0
  0
LINE
  5
F8C
330
1F
100
AcDbEntity
  8
0
  6
Continuous
 62
     7
370
    15
100
AcDbLine
 10
8.086136731247616
 20
4.357254738377045
 30
0.0
 11
8.067834097987027
 21
4.367821768616924
 31
0.0
  0
LINE
  5
F8D
330
1F
100
AcDbEntity
  8
0
  6
Continuous
 62
     7
370
    15
100
AcDbLine
 10
7.4394393645082
 20
4.367821768616924
 30
0.0
 11
7.421136731247615
 21
4.357254738377045
 31
0.0
  0
LINE
  5
F8E
330
1F
100
AcDbEntity
  8
0
  6
Continuous
 62
     7
370
    15
100
AcDbLine
 10
7.421136731247615
 20
4.447254738377045
 30
0.0
 11
7.421136731247615
 21
4.438388798856802
 31
0.0
  0
LINE
  5
F8F
330
1F
100
AcDbEntity
  8
0
  6
Continuous
 62
     7
370
    15
100
AcDbLine
 10
8.086136731247616
 20
4.438388798856802
 30
0.0
 11
8.086136731247616
 21
4.447254738377045
 31
0.0
  0
LINE
  5
F90
330
1F
100
AcDbEntity
  8
0
  6
Continuous
 62
     7
370
    15
100
AcDbLine
 10
7.421136731247615
 20
4.327254738377046
 30
0.0
 11
7.421136731247615
 21
4.318388798856803
 31
0.0
  0
LINE
  5
F91
330
1F
100
AcDbEntity
  8
0
  6
Continuous
 62
     7
370
    15
100
AcDbLine
 10
8.086136731247616
 20
4.318388798856803
 30
0.0
 11
8.086136731247616
 21
4.327254738377046
 31
0.0
  0
LINE
  5
F92
330
1F
100
AcDbEntity
  8
0
  6
Continuous
 62
     7
370
    15
100
AcDbLine
 10
7.421136731247615
 20
4.168388798856803
 30
0.0
 11
7.4394393645082
 21
4.157821768616924
 31
0.0
  0
LINE
  5
F93
330
1F
100
AcDbEntity
  8
0
  6
Continuous
 62
     7
370
    15
100
AcDbLine
 10
8.067834097987027
 20
4.157821768616924
 30
0.0
 11
8.086136731247616
 21
4.168388798856803
 31
0.0
  0
LINE
  5
F94
330
1F
100
AcDbEntity
  8
0
  6
Continuous
 62
     7
370
    15
100
AcDbLine
 10
7.421136731247615
 20
4.512821768616925
 30
0.0
 11
7.421136731247615
 21
4.468388798856803
 31
0.0
  0
LINE
  5
F95
330
1F
100
AcDbEntity
  8
0
  6
Continuous
 62
     7
370
    15
100
AcDbLine
 10
8.086136731247616
 20
4.468388798856803
 30
0.0
 11
8.086136731247616
 21
4.512821768616925
 31
0.0
  0
LINE
  5
F96
330
1F
100
AcDbEntity
  8
0
  6
Continuous
 62
     7
370
    15
100
AcDbLine
 10
8.086136731247616
 20
4.147254738377045
 30
0.0
 11
8.067834097987027
 21
4.157821768616924
 31
0.0
  0
LINE
  5
F97
330
1F
100
AcDbEntity
  8
0
  6
Continuous
 62
     7
370
    15
100
AcDbLine
 10
7.4394393645082
 20
4.157821768616924
 30
0.0
 11
7.421136731247615
 21
4.147254738377045
 31
0.0
  0
LINE
  5
F98
330
1F
100
AcDbEntity
  8
0
  6
Continuous
 62
     7
370
    15
100
AcDbLine
 10
7.421136731247615
 20
4.117254738377045
 30
0.0
 11
7.421136731247615
 21
4.108388798856802
 31
0.0
  0
LINE
  5
F99
330
1F
100
AcDbEntity
  8
0
  6
Continuous
 62
     7
370
    15
100
AcDbLine
 10
8.086136731247616
 20
4.108388798856802
 30
0.0
 11
8.086136731247616
 21
4.117254738377045
 31
0.0
  0
LINE
  5
F9A
330
1F
100
AcDbEntity
  8
0
  6
Continuous
 62
     7
370
    15
100
AcDbLine
 10
7.421136731247615
 20
4.147254738377045
 30
0.0
 11
7.421136731247615
 21
4.138388798856803
 31
0.0
  0
LINE
  5
F9B
330
1F
100
AcDbEntity
  8
0
  6
Continuous
 62
     7
370
    15
100
AcDbLine
 10
8.086136731247616
 20
4.138388798856803
 30
0.0
 11
8.086136731247616
 21
4.147254738377045
 31
0.0
  0
LINE
  5
F9C
330
1F
100
AcDbEntity
  8
0
  6
Continuous
 62
     7
370
    15
100
AcDbLine
 10
7.948317105562968
 20
2.7354117663624
 30
0.0
 11
7.948317105562968
 21
2.925411766362401
 31
0.0
  0
LINE
  5
F9D
330
1F
100
AcDbEntity
  8
0
  6
Continuous
 62
     7
370
    15
100
AcDbLine
 10
7.948317105562968
 20
2.7354117663624
 30
0.0
 11
7.558956356932257
 21
2.7354117663624
 31
0.0
  0
LINE
  5
F9E
330
1F
100
AcDbEntity
  8
0
  6
Continuous
 62
     7
370
    15
100
AcDbLine
 10
7.558956356932257
 20
2.925411766362401
 30
0.0
 11
7.558956356932257
 21
2.7354117663624
 31
0.0
  0
LINE
  5
F9F
330
1F
100
AcDbEntity
  8
0
  6
Continuous
 62
     7
370
    15
100
AcDbLine
 10
7.948317105562968
 20
2.925411766362401
 30
0.0
 11
7.558956356932257
 21
2.925411766362401
 31
0.0
  0
LINE
  5
FA0
330
1F
100
AcDbEntity
  8
0
  6
Continuous
 62
     7
370
    15
100
AcDbLine
 10
7.969530308998568
 20
2.925411766362401
 30
0.0
 11
7.969530308998568
 21
2.7354117663624
 31
0.0
  0
LINE
  5
FA1
330
1F
100
AcDbEntity
  8
0
  6
Continuous
 62
     7
370
    15
100
AcDbLine
 10
7.969530308998568
 20
2.7354117663624
 30
0.0
 11
7.948317105562968
 21
2.7354117663624
 31
0.0
  0
LINE
  5
FA2
330
1F
100
AcDbEntity
  8
0
  6
Continuous
 62
     7
370
    15
100
AcDbLine
 10
7.948317105562968
 20
2.925411766362401
 30
0.0
 11
7.969530308998568
 21
2.925411766362401
 31
0.0
  0
LINE
  5
FA3
330
1F
100
AcDbEntity
  8
0
  6
Continuous
 62
     7
370
    15
100
AcDbLine
 10
7.53774315349666
 20
2.7354117663624
 30
0.0
 11
7.53774315349666
 21
2.925411766362401
 31
0.0
  0
LINE
  5
FA4
330
1F
100
AcDbEntity
  8
0
  6
Continuous
 62
     7
370
    15
100
AcDbLine
 10
7.558956356932257
 20
2.7354117663624
 30
0.0
 11
7.53774315349666
 21
2.7354117663624
 31
0.0
  0
LINE
  5
FA5
330
1F
100
AcDbEntity
  8
0
  6
Continuous
 62
     7
370
    15
100
AcDbLine
 10
7.53774315349666
 20
2.925411766362401
 30
0.0
 11
7.558956356932257
 21
2.925411766362401
 31
0.0
  0
LINE
  5
FA6
330
1F
100
AcDbEntity
  8
0
  6
Continuous
 62
     7
370
    15
100
AcDbLine
 10
8.244849934683212
 20
2.7354117663624
 30
0.0
 11
8.244849934683212
 21
2.925411766362401
 31
0.0
  0
LINE
  5
FA7
330
1F
100
AcDbEntity
  8
0
  6
Continuous
 62
     7
370
    15
100
AcDbLine
 10
8.244849934683212
 20
2.7354117663624
 30
0.0
 11
7.969530308998568
 21
2.7354117663624
 31
0.0
  0
LINE
  5
FA8
330
1F
100
AcDbEntity
  8
0
  6
Continuous
 62
     7
370
    15
100
AcDbLine
 10
8.244849934683212
 20
2.925411766362401
 30
0.0
 11
7.969530308998568
 21
2.925411766362401
 31
0.0
  0
LINE
  5
FA9
330
1F
100
AcDbEntity
  8
0
  6
Continuous
 62
     7
370
    15
100
AcDbLine
 10
7.262423527812019
 20
2.925411766362401
 30
0.0
 11
7.262423527812019
 21
2.7354117663624
 31
0.0
  0
LINE
  5
FAA
330
1F
100
AcDbEntity
  8
0
  6
Continuous
 62
     7
370
    15
100
AcDbLine
 10
7.53774315349666
 20
2.7354117663624
 30
0.0
 11
7.262423527812019
 21
2.7354117663624
 31
0.0
  0
LINE
  5
FAB
330
1F
100
AcDbEntity
  8
0
  6
Continuous
 62
     7
370
    15
100
AcDbLine
 10
7.53774315349666
 20
2.925411766362401
 30
0.0
 11
7.262423527812019
 21
2.925411766362401
 31
0.0
  0
LINE
  5
FAC
330
1F
100
AcDbEntity
  8
0
  6
Continuous
 62
     7
370
    15
100
AcDbLine
 10
7.253636731247614
 20
2.7354117663624
 30
0.0
 11
7.253636731247614
 21
2.925411766362401
 31
0.0
  0
LINE
  5
FAD
330
1F
100
AcDbEntity
  8
0
  6
Continuous
 62
     7
370
    15
100
AcDbLine
 10
7.262423527812019
 20
2.7354117663624
 30
0.0
 11
7.253636731247614
 21
2.7354117663624
 31
0.0
  0
LINE
  5
FAE
330
1F
100
AcDbEntity
  8
0
  6
Continuous
 62
     7
370
    15
100
AcDbLine
 10
7.253636731247614
 20
2.925411766362401
 30
0.0
 11
7.262423527812019
 21
2.925411766362401
 31
0.0
  0
LINE
  5
FAF
330
1F
100
AcDbEntity
  8
0
  6
Continuous
 62
     7
370
    15
100
AcDbLine
 10
8.253636731247617
 20
2.925411766362401
 30
0.0
 11
8.253636731247617
 21
2.7354117663624
 31
0.0
  0
LINE
  5
FB0
330
1F
100
AcDbEntity
  8
0
  6
Continuous
 62
     7
370
    15
100
AcDbLine
 10
8.253636731247617
 20
2.7354117663624
 30
0.0
 11
8.244849934683212
 21
2.7354117663624
 31
0.0
  0
LINE
  5
FB1
330
1F
100
AcDbEntity
  8
0
  6
Continuous
 62
     7
370
    15
100
AcDbLine
 10
8.244849934683212
 20
2.925411766362401
 30
0.0
 11
8.253636731247617
 21
2.925411766362401
 31
0.0
  0
LINE
  5
FB2
330
1F
100
AcDbEntity
  8
0
  6
Continuous
 62
     7
370
    15
100
AcDbLine
 10
8.193636731247615
 20
3.512821768616923
 30
0.0
 11
7.313636731247613
 21
3.512821768616923
 31
0.0
  0
LINE
  5
FB3
330
1F
100
AcDbEntity
  8
0
  6
Continuous
 62
     7
370
    15
100
AcDbLine
 10
8.193636731247615
 20
3.452821768616924
 30
0.0
 11
7.313636731247613
 21
3.452821768616924
 31
0.0
  0
LINE
  5
FB4
330
1F
100
AcDbEntity
  8
0
  6
Continuous
 62
     7
370
    15
100
AcDbLine
 10
8.255189231247612
 20
4.627821768616925
 30
0.0
 11
7.252317231247617
 21
4.627821768616925
 31
0.0
  0
LINE
  5
FB5
330
1F
100
AcDbEntity
  8
0
  6
Continuous
 62
     7
370
    15
100
AcDbLine
 10
7.252317231247617
 20
4.627821768616925
 30
0.0
 11
7.245753231247612
 21
5.006358768616884
 31
0.0
  0
ARC
  5
FB6
330
1F
100
AcDbEntity
  8
0
  6
Continuous
 62
     7
370
    15
100
AcDbCircle
 10
7.312362476677408
 20
5.003163438155707
 30
0.0
 40
0.0666858434263437
100
AcDbArc
 50
108.1955626557743
 51
177.2535538335072
  0
ARC
  5
FB7
330
1F
100
AcDbEntity
  8
0
  6
Continuous
 62
     7
370
    15
100
AcDbCircle
 10
7.753753231247611
 20
3.660315333768167
 30
0.0
 40
1.480215761637223
100
AcDbArc
 50
71.80443734422834
 51
108.1955626557713
  0
ARC
  5
FB8
330
1F
100
AcDbEntity
  8
0
  6
Continuous
 62
     7
370
    15
100
AcDbCircle
 10
8.195143985817821
 20
5.003163438155707
 30
0.0
 40
0.0666858434263408
100
AcDbArc
 50
4.361285748154949
 51
71.80443734422566
  0
LINE
  5
FB9
330
1F
100
AcDbEntity
  8
0
  6
Continuous
 62
     7
370
    15
100
AcDbLine
 10
8.261636731247612
 20
5.008234583853816
 30
0.0
 11
8.261636731247612
 21
4.99964037122195
 31
0.0
  0
LINE
  5
FBA
330
1F
100
AcDbEntity
  8
0
  6
Continuous
 62
     7
370
    15
100
AcDbLine
 10
8.261636731247612
 20
4.99964037122195
 30
0.0
 11
8.255189231247612
 21
4.627821768616925
 31
0.0
  0
LINE
  5
FBB
330
1F
100
AcDbEntity
  8
0
  6
Continuous
 62
     7
370
    15
100
AcDbLine
 10
7.753636731247614
 20
4.512821768616925
 30
0.0
 11
8.222636731247611
 21
4.512821768616925
 31
0.0
  0
LINE
  5
FBC
330
1F
100
AcDbEntity
  8
0
  6
Continuous
 62
     7
370
    15
100
AcDbLine
 10
7.284636731247613
 20
4.512821768616925
 30
0.0
 11
7.753636731247614
 21
4.512821768616925
 31
0.0
  0
LINE
  5
FBD
330
1F
100
AcDbEntity
  8
0
  6
Continuous
 62
     7
370
    15
100
AcDbLine
 10
7.753636731247614
 20
4.037821768616923
 30
0.0
 11
8.067834097987027
 21
4.037821768616923
 31
0.0
  0
LINE
  5
FBE
330
1F
100
AcDbEntity
  8
0
  6
Continuous
 62
     7
370
    15
100
AcDbLine
 10
7.4394393645082
 20
4.037821768616923
 30
0.0
 11
7.753636731247614
 21
4.037821768616923
 31
0.0
  0
LINE
  5
FBF
330
1F
100
AcDbEntity
  8
0
  6
Continuous
 62
     7
370
    15
100
AcDbLine
 10
7.753636731247614
 20
4.027254738377045
 30
0.0
 11
8.086136731247616
 21
4.027254738377045
 31
0.0
  0
LINE
  5
FC0
330
1F
100
AcDbEntity
  8
0
  6
Continuous
 62
     7
370
    15
100
AcDbLine
 10
7.421136731247615
 20
4.027254738377045
 30
0.0
 11
7.753636731247614
 21
4.027254738377045
 31
0.0
  0
LINE
  5
FC1
330
1F
100
AcDbEntity
  8
0
  6
Continuous
 62
     7
370
    15
100
AcDbLine
 10
7.753636731247614
 20
4.048388798856803
 30
0.0
 11
8.086136731247616
 21
4.048388798856803
 31
0.0
  0
LINE
  5
FC2
330
1F
100
AcDbEntity
  8
0
  6
Continuous
 62
     7
370
    15
100
AcDbLine
 10
7.421136731247615
 20
4.048388798856803
 30
0.0
 11
7.753636731247614
 21
4.048388798856803
 31
0.0
  0
LINE
  5
FC3
330
1F
100
AcDbEntity
  8
0
  6
Continuous
 62
     7
370
    15
100
AcDbLine
 10
7.753636731247614
 20
4.108388798856802
 30
0.0
 11
8.086136731247616
 21
4.108388798856802
 31
0.0
  0
LINE
  5
FC4
330
1F
100
AcDbEntity
  8
0
  6
Continuous
 62
     7
370
    15
100
AcDbLine
 10
7.421136731247615
 20
4.108388798856802
 30
0.0
 11
7.753636731247614
 21
4.108388798856802
 31
0.0
  0
LINE
  5
FC5
330
1F
100
AcDbEntity
  8
0
  6
Continuous
 62
     7
370
    15
100
AcDbLine
 10
7.753636731247614
 20
4.097821768616924
 30
0.0
 11
8.067834097987027
 21
4.097821768616924
 31
0.0
  0
LINE
  5
FC6
330
1F
100
AcDbEntity
  8
0
  6
Continuous
 62
     7
370
    15
100
AcDbLine
 10
7.4394393645082
 20
4.097821768616924
 30
0.0
 11
7.753636731247614
 21
4.097821768616924
 31
0.0
  0
LINE
  5
FC7
330
1F
100
AcDbEntity
  8
0
  6
Continuous
 62
     7
370
    15
100
AcDbLine
 10
7.753636731247614
 20
4.408388798856803
 30
0.0
 11
8.086136731247616
 21
4.408388798856803
 31
0.0
  0
LINE
  5
FC8
330
1F
100
AcDbEntity
  8
0
  6
Continuous
 62
     7
370
    15
100
AcDbLine
 10
7.421136731247615
 20
4.408388798856803
 30
0.0
 11
7.753636731247614
 21
4.408388798856803
 31
0.0
  0
LINE
  5
FC9
330
1F
100
AcDbEntity
  8
0
  6
Continuous
 62
     7
370
    15
100
AcDbLine
 10
7.753636731247614
 20
4.397821768616925
 30
0.0
 11
8.067834097987027
 21
4.397821768616925
 31
0.0
  0
LINE
  5
FCA
330
1F
100
AcDbEntity
  8
0
  6
Continuous
 62
     7
370
    15
100
AcDbLine
 10
7.4394393645082
 20
4.397821768616925
 30
0.0
 11
7.753636731247614
 21
4.397821768616925
 31
0.0
  0
LINE
  5
FCB
330
1F
100
AcDbEntity
  8
0
  6
Continuous
 62
     7
370
    15
100
AcDbLine
 10
7.753636731247614
 20
4.427821768616924
 30
0.0
 11
8.067834097987027
 21
4.427821768616924
 31
0.0
  0
LINE
  5
FCC
330
1F
100
AcDbEntity
  8
0
  6
Continuous
 62
     7
370
    15
100
AcDbLine
 10
7.4394393645082
 20
4.427821768616924
 30
0.0
 11
7.753636731247614
 21
4.427821768616924
 31
0.0
  0
LINE
  5
FCD
330
1F
100
AcDbEntity
  8
0
  6
Continuous
 62
     7
370
    15
100
AcDbLine
 10
7.753636731247614
 20
4.417254738377046
 30
0.0
 11
8.086136731247616
 21
4.417254738377046
 31
0.0
  0
LINE
  5
FCE
330
1F
100
AcDbEntity
  8
0
  6
Continuous
 62
     7
370
    15
100
AcDbLine
 10
7.421136731247615
 20
4.417254738377046
 30
0.0
 11
7.753636731247614
 21
4.417254738377046
 31
0.0
  0
LINE
  5
FCF
330
1F
100
AcDbEntity
  8
0
  6
Continuous
 62
     7
370
    15
100
AcDbLine
 10
7.753636731247614
 20
4.387254738377045
 30
0.0
 11
8.086136731247616
 21
4.387254738377045
 31
0.0
  0
LINE
  5
FD0
330
1F
100
AcDbEntity
  8
0
  6
Continuous
 62
     7
370
    15
100
AcDbLine
 10
7.421136731247615
 20
4.387254738377045
 30
0.0
 11
7.753636731247614
 21
4.387254738377045
 31
0.0
  0
LINE
  5
FD1
330
1F
100
AcDbEntity
  8
0
  6
Continuous
 62
     7
370
    15
100
AcDbLine
 10
7.753636731247614
 20
4.087254738377046
 30
0.0
 11
8.086136731247616
 21
4.087254738377046
 31
0.0
  0
LINE
  5
FD2
330
1F
100
AcDbEntity
  8
0
  6
Continuous
 62
     7
370
    15
100
AcDbLine
 10
7.421136731247615
 20
4.087254738377046
 30
0.0
 11
7.753636731247614
 21
4.087254738377046
 31
0.0
  0
LINE
  5
FD3
330
1F
100
AcDbEntity
  8
0
  6
Continuous
 62
     7
370
    15
100
AcDbLine
 10
7.753636731247614
 20
4.468388798856803
 30
0.0
 11
8.086136731247616
 21
4.468388798856803
 31
0.0
  0
LINE
  5
FD4
330
1F
100
AcDbEntity
  8
0
  6
Continuous
 62
     7
370
    15
100
AcDbLine
 10
7.421136731247615
 20
4.468388798856803
 30
0.0
 11
7.753636731247614
 21
4.468388798856803
 31
0.0
  0
LINE
  5
FD5
330
1F
100
AcDbEntity
  8
0
  6
Continuous
 62
     7
370
    15
100
AcDbLine
 10
7.753636731247614
 20
4.457821768616923
 30
0.0
 11
8.067834097987027
 21
4.457821768616923
 31
0.0
  0
LINE
  5
FD6
330
1F
100
AcDbEntity
  8
0
  6
Continuous
 62
     7
370
    15
100
AcDbLine
 10
7.4394393645082
 20
4.457821768616923
 30
0.0
 11
7.753636731247614
 21
4.457821768616923
 31
0.0
  0
LINE
  5
FD7
330
1F
100
AcDbEntity
  8
0
  6
Continuous
 62
     7
370
    15
100
AcDbLine
 10
7.753636731247614
 20
4.237254738377044
 30
0.0
 11
8.086136731247616
 21
4.237254738377044
 31
0.0
  0
LINE
  5
FD8
330
1F
100
AcDbEntity
  8
0
  6
Continuous
 62
     7
370
    15
100
AcDbLine
 10
7.421136731247615
 20
4.237254738377044
 30
0.0
 11
7.753636731247614
 21
4.237254738377044
 31
0.0
  0
LINE
  5
FD9
330
1F
100
AcDbEntity
  8
0
  6
Continuous
 62
     7
370
    15
100
AcDbLine
 10
7.753636731247614
 20
4.228388798856801
 30
0.0
 11
8.086136731247616
 21
4.228388798856801
 31
0.0
  0
LINE
  5
FDA
330
1F
100
AcDbEntity
  8
0
  6
Continuous
 62
     7
370
    15
100
AcDbLine
 10
7.421136731247615
 20
4.228388798856801
 30
0.0
 11
7.753636731247614
 21
4.228388798856801
 31
0.0
  0
LINE
  5
FDB
330
1F
100
AcDbEntity
  8
0
  6
Continuous
 62
     7
370
    15
100
AcDbLine
 10
7.753636731247614
 20
4.378388798856803
 30
0.0
 11
8.086136731247616
 21
4.378388798856803
 31
0.0
  0
LINE
  5
FDC
330
1F
100
AcDbEntity
  8
0
  6
Continuous
 62
     7
370
    15
100
AcDbLine
 10
7.421136731247615
 20
4.378388798856803
 30
0.0
 11
7.753636731247614
 21
4.378388798856803
 31
0.0
  0
LINE
  5
FDD
330
1F
100
AcDbEntity
  8
0
  6
Continuous
 62
     7
370
    15
100
AcDbLine
 10
7.753636731247614
 20
4.357254738377045
 30
0.0
 11
8.086136731247616
 21
4.357254738377045
 31
0.0
  0
LINE
  5
FDE
330
1F
100
AcDbEntity
  8
0
  6
Continuous
 62
     7
370
    15
100
AcDbLine
 10
7.421136731247615
 20
4.357254738377045
 30
0.0
 11
7.753636731247614
 21
4.357254738377045
 31
0.0
  0
LINE
  5
FDF
330
1F
100
AcDbEntity
  8
0
  6
Continuous
 62
     7
370
    15
100
AcDbLine
 10
7.753636731247614
 20
4.348388798856802
 30
0.0
 11
8.086136731247616
 21
4.348388798856802
 31
0.0
  0
LINE
  5
FE0
330
1F
100
AcDbEntity
  8
0
  6
Continuous
 62
     7
370
    15
100
AcDbLine
 10
7.421136731247615
 20
4.348388798856802
 30
0.0
 11
7.753636731247614
 21
4.348388798856802
 31
0.0
  0
LINE
  5
FE1
330
1F
100
AcDbEntity
  8
0
  6
Continuous
 62
     7
370
    15
100
AcDbLine
 10
7.753636731247614
 20
4.438388798856802
 30
0.0
 11
8.086136731247616
 21
4.438388798856802
 31
0.0
  0
LINE
  5
FE2
330
1F
100
AcDbEntity
  8
0
  6
Continuous
 62
     7
370
    15
100
AcDbLine
 10
7.421136731247615
 20
4.438388798856802
 30
0.0
 11
7.753636731247614
 21
4.438388798856802
 31
0.0
  0
LINE
  5
FE3
330
1F
100
AcDbEntity
  8
0
  6
Continuous
 62
     7
370
    15
100
AcDbLine
 10
7.753636731247614
 20
4.057254738377046
 30
0.0
 11
8.086136731247616
 21
4.057254738377046
 31
0.0
  0
LINE
  5
FE4
330
1F
100
AcDbEntity
  8
0
  6
Continuous
 62
     7
370
    15
100
AcDbLine
 10
7.421136731247615
 20
4.057254738377046
 30
0.0
 11
7.753636731247614
 21
4.057254738377046
 31
0.0
  0
LINE
  5
FE5
330
1F
100
AcDbEntity
  8
0
  6
Continuous
 62
     7
370
    15
100
AcDbLine
 10
7.753636731247614
 20
4.367821768616924
 30
0.0
 11
8.067834097987027
 21
4.367821768616924
 31
0.0
  0
LINE
  5
FE6
330
1F
100
AcDbEntity
  8
0
  6
Continuous
 62
     7
370
    15
100
AcDbLine
 10
7.4394393645082
 20
4.367821768616924
 30
0.0
 11
7.753636731247614
 21
4.367821768616924
 31
0.0
  0
LINE
  5
FE7
330
1F
100
AcDbEntity
  8
0
  6
Continuous
 62
     7
370
    15
100
AcDbLine
 10
7.753636731247614
 20
4.078388798856803
 30
0.0
 11
8.086136731247616
 21
4.078388798856803
 31
0.0
  0
LINE
  5
FE8
330
1F
100
AcDbEntity
  8
0
  6
Continuous
 62
     7
370
    15
100
AcDbLine
 10
7.421136731247615
 20
4.078388798856803
 30
0.0
 11
7.753636731247614
 21
4.078388798856803
 31
0.0
  0
LINE
  5
FE9
330
1F
100
AcDbEntity
  8
0
  6
Continuous
 62
     7
370
    15
100
AcDbLine
 10
7.753636731247614
 20
4.067821768616925
 30
0.0
 11
8.067834097987027
 21
4.067821768616925
 31
0.0
  0
LINE
  5
FEA
330
1F
100
AcDbEntity
  8
0
  6
Continuous
 62
     7
370
    15
100
AcDbLine
 10
7.4394393645082
 20
4.067821768616925
 30
0.0
 11
7.753636731247614
 21
4.067821768616925
 31
0.0
  0
LINE
  5
FEB
330
1F
100
AcDbEntity
  8
0
  6
Continuous
 62
     7
370
    15
100
AcDbLine
 10
7.753636731247614
 20
4.012821768616925
 30
0.0
 11
8.086136731247616
 21
4.012821768616925
 31
0.0
  0
LINE
  5
FEC
330
1F
100
AcDbEntity
  8
0
  6
Continuous
 62
     7
370
    15
100
AcDbLine
 10
7.421136731247615
 20
4.012821768616925
 30
0.0
 11
7.753636731247614
 21
4.012821768616925
 31
0.0
  0
LINE
  5
FED
330
1F
100
AcDbEntity
  8
0
  6
Continuous
 62
     7
370
    15
100
AcDbLine
 10
7.753636731247614
 20
4.217821768616923
 30
0.0
 11
8.067834097987027
 21
4.217821768616923
 31
0.0
  0
LINE
  5
FEE
330
1F
100
AcDbEntity
  8
0
  6
Continuous
 62
     7
370
    15
100
AcDbLine
 10
7.4394393645082
 20
4.217821768616923
 30
0.0
 11
7.753636731247614
 21
4.217821768616923
 31
0.0
  0
LINE
  5
FEF
330
1F
100
AcDbEntity
  8
0
  6
Continuous
 62
     7
370
    15
100
AcDbLine
 10
7.753636731247614
 20
4.247821768616923
 30
0.0
 11
8.067834097987027
 21
4.247821768616923
 31
0.0
  0
LINE
  5
FF0
330
1F
100
AcDbEntity
  8
0
  6
Continuous
 62
     7
370
    15
100
AcDbLine
 10
7.4394393645082
 20
4.247821768616923
 30
0.0
 11
7.753636731247614
 21
4.247821768616923
 31
0.0
  0
LINE
  5
FF1
330
1F
100
AcDbEntity
  8
0
  6
Continuous
 62
     7
370
    15
100
AcDbLine
 10
7.753636731247614
 20
4.447254738377045
 30
0.0
 11
8.086136731247616
 21
4.447254738377045
 31
0.0
  0
LINE
  5
FF2
330
1F
100
AcDbEntity
  8
0
  6
Continuous
 62
     7
370
    15
100
AcDbLine
 10
7.421136731247615
 20
4.447254738377045
 30
0.0
 11
7.753636731247614
 21
4.447254738377045
 31
0.0
  0
LINE
  5
FF3
330
1F
100
AcDbEntity
  8
0
  6
Continuous
 62
     7
370
    15
100
AcDbLine
 10
7.753636731247614
 20
4.277821768616925
 30
0.0
 11
8.067834097987027
 21
4.277821768616925
 31
0.0
  0
LINE
  5
FF4
330
1F
100
AcDbEntity
  8
0
  6
Continuous
 62
     7
370
    15
100
AcDbLine
 10
7.4394393645082
 20
4.277821768616925
 30
0.0
 11
7.753636731247614
 21
4.277821768616925
 31
0.0
  0
LINE
  5
FF5
330
1F
100
AcDbEntity
  8
0
  6
Continuous
 62
     7
370
    15
100
AcDbLine
 10
7.753636731247614
 20
4.267254738377044
 30
0.0
 11
8.086136731247616
 21
4.267254738377044
 31
0.0
  0
LINE
  5
FF6
330
1F
100
AcDbEntity
  8
0
  6
Continuous
 62
     7
370
    15
100
AcDbLine
 10
7.421136731247615
 20
4.267254738377044
 30
0.0
 11
7.753636731247614
 21
4.267254738377044
 31
0.0
  0
LINE
  5
FF7
330
1F
100
AcDbEntity
  8
0
  6
Continuous
 62
     7
370
    15
100
AcDbLine
 10
7.753636731247614
 20
4.288388798856804
 30
0.0
 11
8.086136731247616
 21
4.288388798856804
 31
0.0
  0
LINE
  5
FF8
330
1F
100
AcDbEntity
  8
0
  6
Continuous
 62
     7
370
    15
100
AcDbLine
 10
7.421136731247615
 20
4.288388798856804
 30
0.0
 11
7.753636731247614
 21
4.288388798856804
 31
0.0
  0
LINE
  5
FF9
330
1F
100
AcDbEntity
  8
0
  6
Continuous
 62
     7
370
    15
100
AcDbLine
 10
7.753636731247614
 20
4.127821768616923
 30
0.0
 11
8.067834097987027
 21
4.127821768616923
 31
0.0
  0
LINE
  5
FFA
330
1F
100
AcDbEntity
  8
0
  6
Continuous
 62
     7
370
    15
100
AcDbLine
 10
7.4394393645082
 20
4.127821768616923
 30
0.0
 11
7.753636731247614
 21
4.127821768616923
 31
0.0
  0
LINE
  5
FFB
330
1F
100
AcDbEntity
  8
0
  6
Continuous
 62
     7
370
    15
100
AcDbLine
 10
7.753636731247614
 20
4.117254738377045
 30
0.0
 11
8.086136731247616
 21
4.117254738377045
 31
0.0
  0
LINE
  5
FFC
330
1F
100
AcDbEntity
  8
0
  6
Continuous
 62
     7
370
    15
100
AcDbLine
 10
7.421136731247615
 20
4.117254738377045
 30
0.0
 11
7.753636731247614
 21
4.117254738377045
 31
0.0
  0
LINE
  5
FFD
330
1F
100
AcDbEntity
  8
0
  6
Continuous
 62
     7
370
    15
100
AcDbLine
 10
7.753636731247614
 20
4.138388798856803
 30
0.0
 11
8.086136731247616
 21
4.138388798856803
 31
0.0
  0
LINE
  5
FFE
330
1F
100
AcDbEntity
  8
0
  6
Continuous
 62
     7
370
    15
100
AcDbLine
 10
7.421136731247615
 20
4.138388798856803
 30
0.0
 11
7.753636731247614
 21
4.138388798856803
 31
0.0
  0
LINE
  5
FFF
330
1F
100
AcDbEntity
  8
0
  6
Continuous
 62
     7
370
    15
100
AcDbLine
 10
7.753636731247614
 20
4.187821768616924
 30
0.0
 11
8.067834097987027
 21
4.187821768616924
 31
0.0
  0
LINE
  5
1000
330
1F
100
AcDbEntity
  8
0
  6
Continuous
 62
     7
370
    15
100
AcDbLine
 10
7.4394393645082
 20
4.187821768616924
 30
0.0
 11
7.753636731247614
 21
4.187821768616924
 31
0.0
  0
LINE
  5
1001
330
1F
100
AcDbEntity
  8
0
  6
Continuous
 62
     7
370
    15
100
AcDbLine
 10
7.753636731247614
 20
4.177254738377046
 30
0.0
 11
8.086136731247616
 21
4.177254738377046
 31
0.0
  0
LINE
  5
1002
330
1F
100
AcDbEntity
  8
0
  6
Continuous
 62
     7
370
    15
100
AcDbLine
 10
7.421136731247615
 20
4.177254738377046
 30
0.0
 11
7.753636731247614
 21
4.177254738377046
 31
0.0
  0
LINE
  5
1003
330
1F
100
AcDbEntity
  8
0
  6
Continuous
 62
     7
370
    15
100
AcDbLine
 10
7.753636731247614
 20
4.198388798856802
 30
0.0
 11
8.086136731247616
 21
4.198388798856802
 31
0.0
  0
LINE
  5
1004
330
1F
100
AcDbEntity
  8
0
  6
Continuous
 62
     7
370
    15
100
AcDbLine
 10
7.421136731247615
 20
4.198388798856802
 30
0.0
 11
7.753636731247614
 21
4.198388798856802
 31
0.0
  0
LINE
  5
1005
330
1F
100
AcDbEntity
  8
0
  6
Continuous
 62
     7
370
    15
100
AcDbLine
 10
7.753636731247614
 20
4.207254738377045
 30
0.0
 11
8.086136731247616
 21
4.207254738377045
 31
0.0
  0
LINE
  5
1006
330
1F
100
AcDbEntity
  8
0
  6
Continuous
 62
     7
370
    15
100
AcDbLine
 10
7.421136731247615
 20
4.207254738377045
 30
0.0
 11
7.753636731247614
 21
4.207254738377045
 31
0.0
  0
LINE
  5
1007
330
1F
100
AcDbEntity
  8
0
  6
Continuous
 62
     7
370
    15
100
AcDbLine
 10
7.753636731247614
 20
4.318388798856803
 30
0.0
 11
8.086136731247616
 21
4.318388798856803
 31
0.0
  0
LINE
  5
1008
330
1F
100
AcDbEntity
  8
0
  6
Continuous
 62
     7
370
    15
100
AcDbLine
 10
7.421136731247615
 20
4.318388798856803
 30
0.0
 11
7.753636731247614
 21
4.318388798856803
 31
0.0
  0
LINE
  5
1009
330
1F
100
AcDbEntity
  8
0
  6
Continuous
 62
     7
370
    15
100
AcDbLine
 10
7.753636731247614
 20
4.307821768616925
 30
0.0
 11
8.067834097987027
 21
4.307821768616925
 31
0.0
  0
LINE
  5
100A
330
1F
100
AcDbEntity
  8
0
  6
Continuous
 62
     7
370
    15
100
AcDbLine
 10
7.4394393645082
 20
4.307821768616925
 30
0.0
 11
7.753636731247614
 21
4.307821768616925
 31
0.0
  0
LINE
  5
100B
330
1F
100
AcDbEntity
  8
0
  6
Continuous
 62
     7
370
    15
100
AcDbLine
 10
7.753636731247614
 20
4.337821768616924
 30
0.0
 11
8.067834097987027
 21
4.337821768616924
 31
0.0
  0
LINE
  5
100C
330
1F
100
AcDbEntity
  8
0
  6
Continuous
 62
     7
370
    15
100
AcDbLine
 10
7.4394393645082
 20
4.337821768616924
 30
0.0
 11
7.753636731247614
 21
4.337821768616924
 31
0.0
  0
LINE
  5
100D
330
1F
100
AcDbEntity
  8
0
  6
Continuous
 62
     7
370
    15
100
AcDbLine
 10
7.753636731247614
 20
4.327254738377046
 30
0.0
 11
8.086136731247616
 21
4.327254738377046
 31
0.0
  0
LINE
  5
100E
330
1F
100
AcDbEntity
  8
0
  6
Continuous
 62
     7
370
    15
100
AcDbLine
 10
7.421136731247615
 20
4.327254738377046
 30
0.0
 11
7.753636731247614
 21
4.327254738377046
 31
0.0
  0
LINE
  5
100F
330
1F
100
AcDbEntity
  8
0
  6
Continuous
 62
     7
370
    15
100
AcDbLine
 10
7.753636731247614
 20
4.258388798856804
 30
0.0
 11
8.086136731247616
 21
4.258388798856804
 31
0.0
  0
LINE
  5
1010
330
1F
100
AcDbEntity
  8
0
  6
Continuous
 62
     7
370
    15
100
AcDbLine
 10
7.421136731247615
 20
4.258388798856804
 30
0.0
 11
7.753636731247614
 21
4.258388798856804
 31
0.0
  0
LINE
  5
1011
330
1F
100
AcDbEntity
  8
0
  6
Continuous
 62
     7
370
    15
100
AcDbLine
 10
7.753636731247614
 20
4.297254738377047
 30
0.0
 11
8.086136731247616
 21
4.297254738377047
 31
0.0
  0
LINE
  5
1012
330
1F
100
AcDbEntity
  8
0
  6
Continuous
 62
     7
370
    15
100
AcDbLine
 10
7.421136731247615
 20
4.297254738377047
 30
0.0
 11
7.753636731247614
 21
4.297254738377047
 31
0.0
  0
LINE
  5
1013
330
1F
100
AcDbEntity
  8
0
  6
Continuous
 62
     7
370
    15
100
AcDbLine
 10
7.753636731247614
 20
4.168388798856803
 30
0.0
 11
8.086136731247616
 21
4.168388798856803
 31
0.0
  0
LINE
  5
1014
330
1F
100
AcDbEntity
  8
0
  6
Continuous
 62
     7
370
    15
100
AcDbLine
 10
7.421136731247615
 20
4.168388798856803
 30
0.0
 11
7.753636731247614
 21
4.168388798856803
 31
0.0
  0
LINE
  5
1015
330
1F
100
AcDbEntity
  8
0
  6
Continuous
 62
     7
370
    15
100
AcDbLine
 10
7.753636731247614
 20
4.157821768616924
 30
0.0
 11
8.067834097987027
 21
4.157821768616924
 31
0.0
  0
LINE
  5
1016
330
1F
100
AcDbEntity
  8
0
  6
Continuous
 62
     7
370
    15
100
AcDbLine
 10
7.4394393645082
 20
4.157821768616924
 30
0.0
 11
7.753636731247614
 21
4.157821768616924
 31
0.0
  0
LINE
  5
1017
330
1F
100
AcDbEntity
  8
0
  6
Continuous
 62
     7
370
    15
100
AcDbLine
 10
7.753636731247614
 20
4.147254738377045
 30
0.0
 11
8.086136731247616
 21
4.147254738377045
 31
0.0
  0
LINE
  5
1018
330
1F
100
AcDbEntity
  8
0
  6
Continuous
 62
     7
370
    15
100
AcDbLine
 10
7.421136731247615
 20
4.147254738377045
 30
0.0
 11
7.753636731247614
 21
4.147254738377045
 31
0.0
  0
LINE
  5
1019
330
1F
100
AcDbEntity
  8
0
  6
Continuous
 62
     7
370
    15
100
AcDbLine
 10
8.261636731247612
 20
4.997771335896736
 30
0.0
 11
8.261604321343497
 21
4.997771335896743
 31
0.0
  0
LINE
  5
101A
330
1F
100
AcDbEntity
  8
0
  6
Continuous
 62
     7
370
    15
100
AcDbLine
 10
8.261636731247612
 20
4.99964037122195
 30
0.0
 11
8.261636731247612
 21
4.997771335896736
 31
0.0
  0
LINE
  5
101B
330
1F
100
AcDbEntity
  8
0
  6
Continuous
 62
     7
370
    15
100
AcDbLine
 10
8.261378119849361
 20
5.010912064006431
 30
0.0
 11
8.261636731247612
 21
5.010912064006431
 31
0.0
  0
LINE
  5
101C
330
1F
100
AcDbEntity
  8
0
  6
Continuous
 62
     7
370
    15
100
AcDbLine
 10
7.245636731247615
 20
5.010912064006431
 30
0.0
 11
7.245636731247615
 21
4.997771335896736
 31
0.0
  0
LINE
  5
101D
330
1F
100
AcDbEntity
  8
0
  6
Continuous
 62
     7
370
    15
100
AcDbLine
 10
7.245902141151732
 20
4.997771335896743
 30
0.0
 11
7.245636731247615
 21
4.997771335896736
 31
0.0
  0
LINE
  5
101E
330
1F
100
AcDbEntity
  8
0
  6
Continuous
 62
     7
370
    15
100
AcDbLine
 10
7.245636731247615
 20
5.010912064006431
 30
0.0
 11
7.246128342645868
 21
5.010912064006431
 31
0.0
  0
LINE
  5
101F
330
1F
100
AcDbEntity
  8
0
  6
HIDDEN
 62
     7
370
     0
100
AcDbLine
 10
8.117925463341816
 20
2.873501909003589
 30
0.0
 11
7.389347999153412
 21
2.873501909003589
 31
0.0
  0
LINE
  5
1020
330
1F
100
AcDbEntity
  8
0
  6
HIDDEN
 62
     7
370
     0
100
AcDbLine
 10
8.088636731247614
 20
2.890411766362401
 30
0.0
 11
7.418636731247613
 21
2.890411766362401
 31
0.0
  0
LINE
  5
1021
330
1F
100
AcDbEntity
  8
0
  6
HIDDEN
 62
     7
370
     0
100
AcDbLine
 10
8.088636731247614
 20
2.89159205164478
 30
0.0
 11
7.418636731247613
 21
2.89159205164478
 31
0.0
  0
LINE
  5
1022
330
1F
100
AcDbEntity
  8
0
  6
HIDDEN
 62
     7
370
     0
100
AcDbLine
 10
8.117925463341816
 20
2.908501909003589
 30
0.0
 11
7.389347999153412
 21
2.908501909003589
 31
0.0
  0
LINE
  5
1023
330
1F
100
AcDbEntity
  8
0
  6
HIDDEN
 62
     7
370
     0
100
AcDbLine
 10
8.117925463341816
 20
2.838501909003589
 30
0.0
 11
7.389347999153412
 21
2.838501909003589
 31
0.0
  0
LINE
  5
1024
330
1F
100
AcDbEntity
  8
0
  6
HIDDEN
 62
     7
370
     0
100
AcDbLine
 10
8.088636731247614
 20
2.855411766362401
 30
0.0
 11
7.418636731247613
 21
2.855411766362401
 31
0.0
  0
LINE
  5
1025
330
1F
100
AcDbEntity
  8
0
  6
HIDDEN
 62
     7
370
     0
100
AcDbLine
 10
8.088636731247614
 20
2.85659205164478
 30
0.0
 11
7.418636731247613
 21
2.85659205164478
 31
0.0
  0
LINE
  5
1026
330
1F
100
AcDbEntity
  8
0
  6
HIDDEN
 62
     7
370
     0
100
AcDbLine
 10
8.117925463341816
 20
2.768501909003589
 30
0.0
 11
7.389347999153412
 21
2.768501909003589
 31
0.0
  0
LINE
  5
1027
330
1F
100
AcDbEntity
  8
0
  6
HIDDEN
 62
     7
370
     0
100
AcDbLine
 10
8.088636731247614
 20
2.7854117663624
 30
0.0
 11
7.418636731247613
 21
2.7854117663624
 31
0.0
  0
LINE
  5
1028
330
1F
100
AcDbEntity
  8
0
  6
HIDDEN
 62
     7
370
     0
100
AcDbLine
 10
8.088636731247614
 20
2.821592051644778
 30
0.0
 11
7.418636731247613
 21
2.821592051644778
 31
0.0
  0
LINE
  5
1029
330
1F
100
AcDbEntity
  8
0
  6
HIDDEN
 62
     7
370
     0
100
AcDbLine
 10
8.088636731247614
 20
2.751592051644781
 30
0.0
 11
7.418636731247613
 21
2.751592051644781
 31
0.0
  0
LINE
  5
102A
330
1F
100
AcDbEntity
  8
0
  6
HIDDEN
 62
     7
370
     0
100
AcDbLine
 10
8.088636731247614
 20
2.786592051644779
 30
0.0
 11
7.418636731247613
 21
2.786592051644779
 31
0.0
  0
LINE
  5
102B
330
1F
100
AcDbEntity
  8
0
  6
HIDDEN
 62
     7
370
     0
100
AcDbLine
 10
8.117925463341816
 20
2.803501909003591
 30
0.0
 11
7.389347999153412
 21
2.803501909003591
 31
0.0
  0
LINE
  5
102C
330
1F
100
AcDbEntity
  8
0
  6
HIDDEN
 62
     7
370
     0
100
AcDbLine
 10
8.088636731247614
 20
2.820411766362401
 30
0.0
 11
7.418636731247613
 21
2.820411766362401
 31
0.0
  0
LINE
  5
102D
330
1F
100
AcDbEntity
  8
0
  6
HIDDEN
 62
     7
370
     0
100
AcDbLine
 10
8.088636731247614
 20
2.7504117663624
 30
0.0
 11
7.418636731247613
 21
2.7504117663624
 31
0.0
  0
LINE
  5
102E
330
1F
100
AcDbEntity
  8
0
  6
HIDDEN
 62
     7
370
     0
100
AcDbLine
 10
8.244849934683212
 20
2.925411766362401
 30
0.0
 11
8.244849934683212
 21
2.7354117663624
 31
0.0
  0
LINE
  5
102F
330
1F
100
AcDbEntity
  8
0
  6
HIDDEN
 62
     7
370
     0
100
AcDbLine
 10
7.262423527812019
 20
2.7354117663624
 30
0.0
 11
7.262423527812019
 21
2.925411766362401
 31
0.0
  0
LINE
  5
1030
330
1F
100
AcDbEntity
  8
0
  6
HIDDEN
 62
     7
370
     0
100
AcDbLine
 10
7.969530308998568
 20
2.7354117663624
 30
0.0
 11
7.969530308998568
 21
2.925411766362401
 31
0.0
  0
LINE
  5
1031
330
1F
100
AcDbEntity
  8
0
  6
HIDDEN
 62
     7
370
     0
100
AcDbLine
 10
7.537743153496664
 20
2.925411766362401
 30
0.0
 11
7.537743153496664
 21
2.7354117663624
 31
0.0
  0
LINE
  5
1032
330
1F
100
AcDbEntity
  8
0
  6
HIDDEN
 62
     7
370
     0
100
AcDbLine
 10
7.558956356932264
 20
2.7354117663624
 30
0.0
 11
7.558956356932264
 21
2.925411766362401
 31
0.0
  0
LINE
  5
1033
330
1F
100
AcDbEntity
  8
0
  6
HIDDEN
 62
     7
370
     0
100
AcDbLine
 10
7.948317105562968
 20
2.925411766362401
 30
0.0
 11
7.948317105562968
 21
2.7354117663624
 31
0.0
  0
LINE
  5
1036
330
1F
100
AcDbEntity
  8
0
  6
HIDDEN
 62
     7
370
     0
100
AcDbLine
 10
8.261636731247612
 20
5.010912064006431
 30
0.0
 11
8.261636731247612
 21
5.008234583853816
 31
0.0
  0
LINE
  5
1037
330
1F
100
AcDbEntity
  8
0
  6
HIDDEN
 62
     7
370
     0
100
AcDbLine
 10
8.117925463341816
 20
2.873501909003589
 30
0.0
 11
8.088636731247614
 21
2.890411766362401
 31
0.0
  0
LINE
  5
1038
330
1F
100
AcDbEntity
  8
0
  6
HIDDEN
 62
     7
370
     0
100
AcDbLine
 10
7.418636731247613
 20
2.890411766362401
 30
0.0
 11
7.389347999153412
 21
2.873501909003589
 31
0.0
  0
LINE
  5
1039
330
1F
100
AcDbEntity
  8
0
  6
HIDDEN
 62
     7
370
     0
100
AcDbLine
 10
7.389347999153412
 20
2.908501909003589
 30
0.0
 11
7.418636731247613
 21
2.89159205164478
 31
0.0
  0
LINE
  5
103A
330
1F
100
AcDbEntity
  8
0
  6
HIDDEN
 62
     7
370
     0
100
AcDbLine
 10
8.088636731247614
 20
2.89159205164478
 30
0.0
 11
8.117925463341816
 21
2.908501909003589
 31
0.0
  0
LINE
  5
103B
330
1F
100
AcDbEntity
  8
0
  6
HIDDEN
 62
     7
370
     0
100
AcDbLine
 10
8.117925463341816
 20
2.908501909003589
 30
0.0
 11
8.088636731247614
 21
2.925411766362401
 31
0.0
  0
LINE
  5
103C
330
1F
100
AcDbEntity
  8
0
  6
HIDDEN
 62
     7
370
     0
100
AcDbLine
 10
7.418636731247613
 20
2.925411766362401
 30
0.0
 11
7.389347999153412
 21
2.908501909003589
 31
0.0
  0
LINE
  5
103D
330
1F
100
AcDbEntity
  8
0
  6
HIDDEN
 62
     7
370
     0
100
AcDbLine
 10
8.117925463341816
 20
2.838501909003589
 30
0.0
 11
8.088636731247614
 21
2.855411766362401
 31
0.0
  0
LINE
  5
103E
330
1F
100
AcDbEntity
  8
0
  6
HIDDEN
 62
     7
370
     0
100
AcDbLine
 10
7.418636731247613
 20
2.855411766362401
 30
0.0
 11
7.389347999153412
 21
2.838501909003589
 31
0.0
  0
LINE
  5
103F
330
1F
100
AcDbEntity
  8
0
  6
HIDDEN
 62
     7
370
     0
100
AcDbLine
 10
7.389347999153412
 20
2.873501909003589
 30
0.0
 11
7.418636731247613
 21
2.85659205164478
 31
0.0
  0
LINE
  5
1040
330
1F
100
AcDbEntity
  8
0
  6
HIDDEN
 62
     7
370
     0
100
AcDbLine
 10
8.088636731247614
 20
2.85659205164478
 30
0.0
 11
8.117925463341816
 21
2.873501909003589
 31
0.0
  0
LINE
  5
1041
330
1F
100
AcDbEntity
  8
0
  6
HIDDEN
 62
     7
370
     0
100
AcDbLine
 10
8.117925463341816
 20
2.768501909003589
 30
0.0
 11
8.088636731247614
 21
2.7854117663624
 31
0.0
  0
LINE
  5
1042
330
1F
100
AcDbEntity
  8
0
  6
HIDDEN
 62
     7
370
     0
100
AcDbLine
 10
7.418636731247613
 20
2.7854117663624
 30
0.0
 11
7.389347999153412
 21
2.768501909003589
 31
0.0
  0
LINE
  5
1043
330
1F
100
AcDbEntity
  8
0
  6
HIDDEN
 62
     7
370
     0
100
AcDbLine
 10
7.389347999153412
 20
2.838501909003589
 30
0.0
 11
7.418636731247613
 21
2.821592051644778
 31
0.0
  0
LINE
  5
1044
330
1F
100
AcDbEntity
  8
0
  6
HIDDEN
 62
     7
370
     0
100
AcDbLine
 10
8.088636731247614
 20
2.821592051644778
 30
0.0
 11
8.117925463341816
 21
2.838501909003589
 31
0.0
  0
LINE
  5
1045
330
1F
100
AcDbEntity
  8
0
  6
HIDDEN
 62
     7
370
     0
100
AcDbLine
 10
7.389347999153412
 20
2.768501909003589
 30
0.0
 11
7.418636731247613
 21
2.751592051644781
 31
0.0
  0
LINE
  5
1046
330
1F
100
AcDbEntity
  8
0
  6
HIDDEN
 62
     7
370
     0
100
AcDbLine
 10
8.088636731247614
 20
2.751592051644781
 30
0.0
 11
8.117925463341816
 21
2.768501909003589
 31
0.0
  0
LINE
  5
1047
330
1F
100
AcDbEntity
  8
0
  6
HIDDEN
 62
     7
370
     0
100
AcDbLine
 10
7.389347999153412
 20
2.803501909003591
 30
0.0
 11
7.418636731247613
 21
2.786592051644779
 31
0.0
  0
LINE
  5
1048
330
1F
100
AcDbEntity
  8
0
  6
HIDDEN
 62
     7
370
     0
100
AcDbLine
 10
8.088636731247614
 20
2.786592051644779
 30
0.0
 11
8.117925463341816
 21
2.803501909003591
 31
0.0
  0
LINE
  5
1049
330
1F
100
AcDbEntity
  8
0
  6
HIDDEN
 62
     7
370
     0
100
AcDbLine
 10
8.117925463341816
 20
2.803501909003591
 30
0.0
 11
8.088636731247614
 21
2.820411766362401
 31
0.0
  0
LINE
  5
104A
330
1F
100
AcDbEntity
  8
0
  6
HIDDEN
 62
     7
370
     0
100
AcDbLine
 10
7.418636731247613
 20
2.820411766362401
 30
0.0
 11
7.389347999153412
 21
2.803501909003591
 31
0.0
  0
LINE
  5
104B
330
1F
100
AcDbEntity
  8
0
  6
HIDDEN
 62
     7
370
     0
100
AcDbLine
 10
8.114617493361148
 20
2.7354117663624
 30
0.0
 11
8.088636731247614
 21
2.7504117663624
 31
0.0
  0
LINE
  5
104C
330
1F
100
AcDbEntity
  8
0
  6
HIDDEN
 62
     7
370
     0
100
AcDbLine
 10
7.418636731247613
 20
2.7504117663624
 30
0.0
 11
7.392655969134083
 21
2.7354117663624
 31
0.0
  0
LINE
  5
104D
330
1F
100
AcDbEntity
  8
0
  6
HIDDEN
 62
     7
370
     0
100
AcDbLine
 10
7.418636731247613
 20
2.786592051644779
 30
0.0
 11
7.418636731247613
 21
2.7854117663624
 31
0.0
  0
LINE
  5
104E
330
1F
100
AcDbEntity
  8
0
  6
HIDDEN
 62
     7
370
     0
100
AcDbLine
 10
8.088636731247614
 20
2.7854117663624
 30
0.0
 11
8.088636731247614
 21
2.786592051644779
 31
0.0
  0
LINE
  5
104F
330
1F
100
AcDbEntity
  8
0
  6
HIDDEN
 62
     7
370
     0
100
AcDbLine
 10
7.418636731247613
 20
2.821592051644778
 30
0.0
 11
7.418636731247613
 21
2.820411766362401
 31
0.0
  0
LINE
  5
1050
330
1F
100
AcDbEntity
  8
0
  6
HIDDEN
 62
     7
370
     0
100
AcDbLine
 10
8.088636731247614
 20
2.820411766362401
 30
0.0
 11
8.088636731247614
 21
2.821592051644778
 31
0.0
  0
LINE
  5
1051
330
1F
100
AcDbEntity
  8
0
  6
HIDDEN
 62
     7
370
     0
100
AcDbLine
 10
7.418636731247613
 20
2.85659205164478
 30
0.0
 11
7.418636731247613
 21
2.855411766362401
 31
0.0
  0
LINE
  5
1052
330
1F
100
AcDbEntity
  8
0
  6
HIDDEN
 62
     7
370
     0
100
AcDbLine
 10
8.088636731247614
 20
2.855411766362401
 30
0.0
 11
8.088636731247614
 21
2.85659205164478
 31
0.0
  0
LINE
  5
1053
330
1F
100
AcDbEntity
  8
0
  6
HIDDEN
 62
     7
370
     0
100
AcDbLine
 10
7.418636731247613
 20
2.751592051644781
 30
0.0
 11
7.418636731247613
 21
2.7504117663624
 31
0.0
  0
LINE
  5
1054
330
1F
100
AcDbEntity
  8
0
  6
HIDDEN
 62
     7
370
     0
100
AcDbLine
 10
8.088636731247614
 20
2.7504117663624
 30
0.0
 11
8.088636731247614
 21
2.751592051644781
 31
0.0
  0
LINE
  5
1055
330
1F
100
AcDbEntity
  8
0
  6
HIDDEN
 62
     7
370
     0
100
AcDbLine
 10
7.418636731247613
 20
2.89159205164478
 30
0.0
 11
7.418636731247613
 21
2.890411766362401
 31
0.0
  0
LINE
  5
1056
330
1F
100
AcDbEntity
  8
0
  6
HIDDEN
 62
     7
370
     0
100
AcDbLine
 10
8.088636731247614
 20
2.890411766362401
 30
0.0
 11
8.088636731247614
 21
2.89159205164478
 31
0.0
  0
LINE
  5
1057
330
1F
100
AcDbEntity
  8
0
  6
HIDDEN
 62
     7
370
     0
100
AcDbLine
 10
7.418636731247613
 20
3.512821768616923
 30
0.0
 11
7.418636731247613
 21
3.452821768616924
 31
0.0
  0
LINE
  5
1058
330
1F
100
AcDbEntity
  8
0
  6
HIDDEN
 62
     7
370
     0
100
AcDbLine
 10
8.088636731247614
 20
3.452821768616924
 30
0.0
 11
8.088636731247614
 21
3.512821768616923
 31
0.0
  0
LINE
  5
1059
330
1F
100
AcDbEntity
  8
0
  6
Continuous
 62
     7
370
    15
100
AcDbLine
 10
2.053006557208075
 20
3.335535288881949
 30
0.0
 11
2.053006557208075
 21
3.27553528888195
 31
0.0
  0
LINE
  5
105A
330
1F
100
AcDbEntity
  8
0
  6
Continuous
 62
     7
370
    15
100
AcDbLine
 10
2.933006557208077
 20
3.27553528888195
 30
0.0
 11
2.933006557208077
 21
3.335535288881949
 31
0.0
  0
LINE
  5
105B
330
1F
100
AcDbEntity
  8
0
  6
Continuous
 62
     7
370
    15
100
AcDbLine
 10
2.024006557208078
 20
4.625028292409496
 30
0.0
 11
2.024006557208078
 21
4.510028292409495
 31
0.0
  0
LINE
  5
105C
330
1F
100
AcDbEntity
  8
0
  6
Continuous
 62
     7
370
    15
100
AcDbLine
 10
2.962006557208077
 20
4.510028292409495
 30
0.0
 11
2.962006557208077
 21
4.625028292409496
 31
0.0
  0
LINE
  5
105D
330
1F
100
AcDbEntity
  8
0
  6
Continuous
 62
     7
370
    15
100
AcDbLine
 10
2.788508985016168
 20
5.137737619197961
 30
0.0
 11
1.496923605379986
 21
5.137737619197961
 31
0.0
  0
LINE
  5
105E
330
1F
100
AcDbEntity
  8
0
  6
Continuous
 62
     7
370
    15
100
AcDbLine
 10
2.16050655720808
 20
4.054461262169617
 30
0.0
 11
2.16050655720808
 21
4.045595322649374
 31
0.0
  0
LINE
  5
105F
330
1F
100
AcDbEntity
  8
0
  6
Continuous
 62
     7
370
    15
100
AcDbLine
 10
2.825506557208079
 20
4.045595322649374
 30
0.0
 11
2.825506557208079
 21
4.054461262169617
 31
0.0
  0
LINE
  5
1060
330
1F
100
AcDbEntity
  8
0
  6
Continuous
 62
     7
370
    15
100
AcDbLine
 10
2.825506557208079
 20
4.024461262169616
 30
0.0
 11
2.80720392394749
 21
4.035028292409494
 31
0.0
  0
LINE
  5
1061
330
1F
100
AcDbEntity
  8
0
  6
Continuous
 62
     7
370
    15
100
AcDbLine
 10
2.178809190468662
 20
4.035028292409494
 30
0.0
 11
2.16050655720808
 21
4.024461262169616
 31
0.0
  0
LINE
  5
1062
330
1F
100
AcDbEntity
  8
0
  6
Continuous
 62
     7
370
    15
100
AcDbLine
 10
2.16050655720808
 20
4.045595322649374
 30
0.0
 11
2.178809190468662
 21
4.035028292409494
 31
0.0
  0
LINE
  5
1063
330
1F
100
AcDbEntity
  8
0
  6
Continuous
 62
     7
370
    15
100
AcDbLine
 10
2.80720392394749
 20
4.035028292409494
 30
0.0
 11
2.825506557208079
 21
4.045595322649374
 31
0.0
  0
LINE
  5
1064
330
1F
100
AcDbEntity
  8
0
  6
Continuous
 62
     7
370
    15
100
AcDbLine
 10
2.16050655720808
 20
4.405595322649373
 30
0.0
 11
2.178809190468662
 21
4.395028292409495
 31
0.0
  0
LINE
  5
1065
330
1F
100
AcDbEntity
  8
0
  6
Continuous
 62
     7
370
    15
100
AcDbLine
 10
2.80720392394749
 20
4.395028292409495
 30
0.0
 11
2.825506557208079
 21
4.405595322649373
 31
0.0
  0
LINE
  5
1066
330
1F
100
AcDbEntity
  8
0
  6
Continuous
 62
     7
370
    15
100
AcDbLine
 10
2.825506557208079
 20
4.414461262169616
 30
0.0
 11
2.80720392394749
 21
4.425028292409495
 31
0.0
  0
LINE
  5
1067
330
1F
100
AcDbEntity
  8
0
  6
Continuous
 62
     7
370
    15
100
AcDbLine
 10
2.178809190468662
 20
4.425028292409495
 30
0.0
 11
2.16050655720808
 21
4.414461262169616
 31
0.0
  0
LINE
  5
1068
330
1F
100
AcDbEntity
  8
0
  6
Continuous
 62
     7
370
    15
100
AcDbLine
 10
2.16050655720808
 20
4.324461262169617
 30
0.0
 11
2.16050655720808
 21
4.315595322649373
 31
0.0
  0
LINE
  5
1069
330
1F
100
AcDbEntity
  8
0
  6
Continuous
 62
     7
370
    15
100
AcDbLine
 10
2.825506557208079
 20
4.315595322649373
 30
0.0
 11
2.825506557208079
 21
4.324461262169617
 31
0.0
  0
LINE
  5
106A
330
1F
100
AcDbEntity
  8
0
  6
Continuous
 62
     7
370
    15
100
AcDbLine
 10
2.16050655720808
 20
4.204461262169616
 30
0.0
 11
2.16050655720808
 21
4.195595322649372
 31
0.0
  0
LINE
  5
106B
330
1F
100
AcDbEntity
  8
0
  6
Continuous
 62
     7
370
    15
100
AcDbLine
 10
2.825506557208079
 20
4.195595322649372
 30
0.0
 11
2.825506557208079
 21
4.204461262169616
 31
0.0
  0
LINE
  5
106C
330
1F
100
AcDbEntity
  8
0
  6
Continuous
 62
     7
370
    15
100
AcDbLine
 10
2.16050655720808
 20
4.354461262169616
 30
0.0
 11
2.16050655720808
 21
4.345595322649373
 31
0.0
  0
LINE
  5
106D
330
1F
100
AcDbEntity
  8
0
  6
Continuous
 62
     7
370
    15
100
AcDbLine
 10
2.825506557208079
 20
4.345595322649373
 30
0.0
 11
2.825506557208079
 21
4.354461262169616
 31
0.0
  0
LINE
  5
106E
330
1F
100
AcDbEntity
  8
0
  6
Continuous
 62
     7
370
    15
100
AcDbLine
 10
2.825506557208079
 20
4.144461262169615
 30
0.0
 11
2.80720392394749
 21
4.155028292409495
 31
0.0
  0
LINE
  5
106F
330
1F
100
AcDbEntity
  8
0
  6
Continuous
 62
     7
370
    15
100
AcDbLine
 10
2.178809190468662
 20
4.155028292409495
 30
0.0
 11
2.16050655720808
 21
4.144461262169615
 31
0.0
  0
LINE
  5
1070
330
1F
100
AcDbEntity
  8
0
  6
Continuous
 62
     7
370
    15
100
AcDbLine
 10
2.825506557208079
 20
4.444461262169616
 30
0.0
 11
2.80720392394749
 21
4.455028292409494
 31
0.0
  0
LINE
  5
1071
330
1F
100
AcDbEntity
  8
0
  6
Continuous
 62
     7
370
    15
100
AcDbLine
 10
2.178809190468662
 20
4.455028292409494
 30
0.0
 11
2.16050655720808
 21
4.444461262169616
 31
0.0
  0
LINE
  5
1072
330
1F
100
AcDbEntity
  8
0
  6
Continuous
 62
     7
370
    15
100
AcDbLine
 10
2.16050655720808
 20
4.375595322649374
 30
0.0
 11
2.178809190468662
 21
4.365028292409494
 31
0.0
  0
LINE
  5
1073
330
1F
100
AcDbEntity
  8
0
  6
Continuous
 62
     7
370
    15
100
AcDbLine
 10
2.80720392394749
 20
4.365028292409494
 30
0.0
 11
2.825506557208079
 21
4.375595322649374
 31
0.0
  0
LINE
  5
1074
330
1F
100
AcDbEntity
  8
0
  6
Continuous
 62
     7
370
    15
100
AcDbLine
 10
2.825506557208079
 20
4.384461262169615
 30
0.0
 11
2.80720392394749
 21
4.395028292409495
 31
0.0
  0
LINE
  5
1075
330
1F
100
AcDbEntity
  8
0
  6
Continuous
 62
     7
370
    15
100
AcDbLine
 10
2.178809190468662
 20
4.395028292409495
 30
0.0
 11
2.16050655720808
 21
4.384461262169615
 31
0.0
  0
LINE
  5
1076
330
1F
100
AcDbEntity
  8
0
  6
Continuous
 62
     7
370
    15
100
AcDbLine
 10
2.16050655720808
 20
4.075595322649373
 30
0.0
 11
2.178809190468662
 21
4.065028292409495
 31
0.0
  0
LINE
  5
1077
330
1F
100
AcDbEntity
  8
0
  6
Continuous
 62
     7
370
    15
100
AcDbLine
 10
2.80720392394749
 20
4.065028292409495
 30
0.0
 11
2.825506557208079
 21
4.075595322649373
 31
0.0
  0
LINE
  5
1078
330
1F
100
AcDbEntity
  8
0
  6
Continuous
 62
     7
370
    15
100
AcDbLine
 10
2.16050655720808
 20
4.024461262169616
 30
0.0
 11
2.16050655720808
 21
4.010028292409495
 31
0.0
  0
LINE
  5
1079
330
1F
100
AcDbEntity
  8
0
  6
Continuous
 62
     7
370
    15
100
AcDbLine
 10
2.825506557208079
 20
4.010028292409495
 30
0.0
 11
2.825506557208079
 21
4.024461262169616
 31
0.0
  0
LINE
  5
107A
330
1F
100
AcDbEntity
  8
0
  6
Continuous
 62
     7
370
    15
100
AcDbLine
 10
2.16050655720808
 20
4.225595322649372
 30
0.0
 11
2.178809190468662
 21
4.215028292409494
 31
0.0
  0
LINE
  5
107B
330
1F
100
AcDbEntity
  8
0
  6
Continuous
 62
     7
370
    15
100
AcDbLine
 10
2.80720392394749
 20
4.215028292409494
 30
0.0
 11
2.825506557208079
 21
4.225595322649372
 31
0.0
  0
LINE
  5
107C
330
1F
100
AcDbEntity
  8
0
  6
Continuous
 62
     7
370
    15
100
AcDbLine
 10
2.16050655720808
 20
4.435595322649373
 30
0.0
 11
2.178809190468662
 21
4.425028292409495
 31
0.0
  0
LINE
  5
107D
330
1F
100
AcDbEntity
  8
0
  6
Continuous
 62
     7
370
    15
100
AcDbLine
 10
2.80720392394749
 20
4.425028292409495
 30
0.0
 11
2.825506557208079
 21
4.435595322649373
 31
0.0
  0
LINE
  5
107E
330
1F
100
AcDbEntity
  8
0
  6
Continuous
 62
     7
370
    15
100
AcDbLine
 10
2.16050655720808
 20
4.255595322649375
 30
0.0
 11
2.178809190468662
 21
4.245028292409493
 31
0.0
  0
LINE
  5
107F
330
1F
100
AcDbEntity
  8
0
  6
Continuous
 62
     7
370
    15
100
AcDbLine
 10
2.80720392394749
 20
4.245028292409493
 30
0.0
 11
2.825506557208079
 21
4.255595322649375
 31
0.0
  0
LINE
  5
1080
330
1F
100
AcDbEntity
  8
0
  6
Continuous
 62
     7
370
    15
100
AcDbLine
 10
2.825506557208079
 20
4.084461262169616
 30
0.0
 11
2.80720392394749
 21
4.095028292409494
 31
0.0
  0
LINE
  5
1081
330
1F
100
AcDbEntity
  8
0
  6
Continuous
 62
     7
370
    15
100
AcDbLine
 10
2.178809190468662
 20
4.095028292409494
 30
0.0
 11
2.16050655720808
 21
4.084461262169616
 31
0.0
  0
LINE
  5
1082
330
1F
100
AcDbEntity
  8
0
  6
Continuous
 62
     7
370
    15
100
AcDbLine
 10
2.16050655720808
 20
4.105595322649373
 30
0.0
 11
2.178809190468662
 21
4.095028292409494
 31
0.0
  0
LINE
  5
1083
330
1F
100
AcDbEntity
  8
0
  6
Continuous
 62
     7
370
    15
100
AcDbLine
 10
2.80720392394749
 20
4.095028292409494
 30
0.0
 11
2.825506557208079
 21
4.105595322649373
 31
0.0
  0
LINE
  5
1084
330
1F
100
AcDbEntity
  8
0
  6
Continuous
 62
     7
370
    15
100
AcDbLine
 10
2.16050655720808
 20
4.135595322649374
 30
0.0
 11
2.178809190468662
 21
4.125028292409494
 31
0.0
  0
LINE
  5
1085
330
1F
100
AcDbEntity
  8
0
  6
Continuous
 62
     7
370
    15
100
AcDbLine
 10
2.80720392394749
 20
4.125028292409494
 30
0.0
 11
2.825506557208079
 21
4.135595322649374
 31
0.0
  0
LINE
  5
1086
330
1F
100
AcDbEntity
  8
0
  6
Continuous
 62
     7
370
    15
100
AcDbLine
 10
2.16050655720808
 20
4.315595322649373
 30
0.0
 11
2.178809190468662
 21
4.305028292409495
 31
0.0
  0
LINE
  5
1087
330
1F
100
AcDbEntity
  8
0
  6
Continuous
 62
     7
370
    15
100
AcDbLine
 10
2.80720392394749
 20
4.305028292409495
 30
0.0
 11
2.825506557208079
 21
4.315595322649373
 31
0.0
  0
LINE
  5
1088
330
1F
100
AcDbEntity
  8
0
  6
Continuous
 62
     7
370
    15
100
AcDbLine
 10
2.16050655720808
 20
4.084461262169616
 30
0.0
 11
2.16050655720808
 21
4.075595322649373
 31
0.0
  0
LINE
  5
1089
330
1F
100
AcDbEntity
  8
0
  6
Continuous
 62
     7
370
    15
100
AcDbLine
 10
2.825506557208079
 20
4.075595322649373
 30
0.0
 11
2.825506557208079
 21
4.084461262169616
 31
0.0
  0
LINE
  5
108A
330
1F
100
AcDbEntity
  8
0
  6
Continuous
 62
     7
370
    15
100
AcDbLine
 10
2.825506557208079
 20
4.054461262169617
 30
0.0
 11
2.80720392394749
 21
4.065028292409495
 31
0.0
  0
LINE
  5
108B
330
1F
100
AcDbEntity
  8
0
  6
Continuous
 62
     7
370
    15
100
AcDbLine
 10
2.178809190468662
 20
4.065028292409495
 30
0.0
 11
2.16050655720808
 21
4.054461262169617
 31
0.0
  0
LINE
  5
108C
330
1F
100
AcDbEntity
  8
0
  6
Continuous
 62
     7
370
    15
100
AcDbLine
 10
2.825506557208079
 20
4.174461262169616
 30
0.0
 11
2.80720392394749
 21
4.185028292409494
 31
0.0
  0
LINE
  5
108D
330
1F
100
AcDbEntity
  8
0
  6
Continuous
 62
     7
370
    15
100
AcDbLine
 10
2.178809190468662
 20
4.185028292409494
 30
0.0
 11
2.16050655720808
 21
4.174461262169616
 31
0.0
  0
LINE
  5
108E
330
1F
100
AcDbEntity
  8
0
  6
Continuous
 62
     7
370
    15
100
AcDbLine
 10
2.16050655720808
 20
4.195595322649372
 30
0.0
 11
2.178809190468662
 21
4.185028292409494
 31
0.0
  0
LINE
  5
108F
330
1F
100
AcDbEntity
  8
0
  6
Continuous
 62
     7
370
    15
100
AcDbLine
 10
2.80720392394749
 20
4.185028292409494
 30
0.0
 11
2.825506557208079
 21
4.195595322649372
 31
0.0
  0
LINE
  5
1090
330
1F
100
AcDbEntity
  8
0
  6
Continuous
 62
     7
370
    15
100
AcDbLine
 10
2.825506557208079
 20
4.204461262169616
 30
0.0
 11
2.80720392394749
 21
4.215028292409494
 31
0.0
  0
LINE
  5
1091
330
1F
100
AcDbEntity
  8
0
  6
Continuous
 62
     7
370
    15
100
AcDbLine
 10
2.178809190468662
 20
4.215028292409494
 30
0.0
 11
2.16050655720808
 21
4.204461262169616
 31
0.0
  0
LINE
  5
1092
330
1F
100
AcDbEntity
  8
0
  6
Continuous
 62
     7
370
    15
100
AcDbLine
 10
2.16050655720808
 20
4.384461262169615
 30
0.0
 11
2.16050655720808
 21
4.375595322649374
 31
0.0
  0
LINE
  5
1093
330
1F
100
AcDbEntity
  8
0
  6
Continuous
 62
     7
370
    15
100
AcDbLine
 10
2.825506557208079
 20
4.375595322649374
 30
0.0
 11
2.825506557208079
 21
4.384461262169615
 31
0.0
  0
LINE
  5
1094
330
1F
100
AcDbEntity
  8
0
  6
Continuous
 62
     7
370
    15
100
AcDbLine
 10
2.825506557208079
 20
4.234461262169615
 30
0.0
 11
2.80720392394749
 21
4.245028292409493
 31
0.0
  0
LINE
  5
1095
330
1F
100
AcDbEntity
  8
0
  6
Continuous
 62
     7
370
    15
100
AcDbLine
 10
2.178809190468662
 20
4.245028292409493
 30
0.0
 11
2.16050655720808
 21
4.234461262169615
 31
0.0
  0
LINE
  5
1096
330
1F
100
AcDbEntity
  8
0
  6
Continuous
 62
     7
370
    15
100
AcDbLine
 10
2.16050655720808
 20
4.345595322649373
 30
0.0
 11
2.178809190468662
 21
4.335028292409495
 31
0.0
  0
LINE
  5
1097
330
1F
100
AcDbEntity
  8
0
  6
Continuous
 62
     7
370
    15
100
AcDbLine
 10
2.80720392394749
 20
4.335028292409495
 30
0.0
 11
2.825506557208079
 21
4.345595322649373
 31
0.0
  0
LINE
  5
1098
330
1F
100
AcDbEntity
  8
0
  6
Continuous
 62
     7
370
    15
100
AcDbLine
 10
2.825506557208079
 20
4.264461262169614
 30
0.0
 11
2.80720392394749
 21
4.275028292409496
 31
0.0
  0
LINE
  5
1099
330
1F
100
AcDbEntity
  8
0
  6
Continuous
 62
     7
370
    15
100
AcDbLine
 10
2.178809190468662
 20
4.275028292409496
 30
0.0
 11
2.16050655720808
 21
4.264461262169614
 31
0.0
  0
LINE
  5
109A
330
1F
100
AcDbEntity
  8
0
  6
Continuous
 62
     7
370
    15
100
AcDbLine
 10
2.16050655720808
 20
4.285595322649374
 30
0.0
 11
2.178809190468662
 21
4.275028292409496
 31
0.0
  0
LINE
  5
109B
330
1F
100
AcDbEntity
  8
0
  6
Continuous
 62
     7
370
    15
100
AcDbLine
 10
2.80720392394749
 20
4.275028292409496
 30
0.0
 11
2.825506557208079
 21
4.285595322649374
 31
0.0
  0
LINE
  5
109C
330
1F
100
AcDbEntity
  8
0
  6
Continuous
 62
     7
370
    15
100
AcDbLine
 10
2.825506557208079
 20
4.294461262169617
 30
0.0
 11
2.80720392394749
 21
4.305028292409495
 31
0.0
  0
LINE
  5
109D
330
1F
100
AcDbEntity
  8
0
  6
Continuous
 62
     7
370
    15
100
AcDbLine
 10
2.178809190468662
 20
4.305028292409495
 30
0.0
 11
2.16050655720808
 21
4.294461262169617
 31
0.0
  0
LINE
  5
109E
330
1F
100
AcDbEntity
  8
0
  6
Continuous
 62
     7
370
    15
100
AcDbLine
 10
2.825506557208079
 20
4.114461262169616
 30
0.0
 11
2.80720392394749
 21
4.125028292409494
 31
0.0
  0
LINE
  5
109F
330
1F
100
AcDbEntity
  8
0
  6
Continuous
 62
     7
370
    15
100
AcDbLine
 10
2.178809190468662
 20
4.125028292409494
 30
0.0
 11
2.16050655720808
 21
4.114461262169616
 31
0.0
  0
LINE
  5
10A0
330
1F
100
AcDbEntity
  8
0
  6
Continuous
 62
     7
370
    15
100
AcDbLine
 10
2.825506557208079
 20
4.324461262169617
 30
0.0
 11
2.80720392394749
 21
4.335028292409495
 31
0.0
  0
LINE
  5
10A1
330
1F
100
AcDbEntity
  8
0
  6
Continuous
 62
     7
370
    15
100
AcDbLine
 10
2.178809190468662
 20
4.335028292409495
 30
0.0
 11
2.16050655720808
 21
4.324461262169617
 31
0.0
  0
LINE
  5
10A2
330
1F
100
AcDbEntity
  8
0
  6
Continuous
 62
     7
370
    15
100
AcDbLine
 10
2.16050655720808
 20
4.144461262169615
 30
0.0
 11
2.16050655720808
 21
4.135595322649374
 31
0.0
  0
LINE
  5
10A3
330
1F
100
AcDbEntity
  8
0
  6
Continuous
 62
     7
370
    15
100
AcDbLine
 10
2.825506557208079
 20
4.135595322649374
 30
0.0
 11
2.825506557208079
 21
4.144461262169615
 31
0.0
  0
LINE
  5
10A4
330
1F
100
AcDbEntity
  8
0
  6
Continuous
 62
     7
370
    15
100
AcDbLine
 10
2.825506557208079
 20
4.354461262169616
 30
0.0
 11
2.80720392394749
 21
4.365028292409494
 31
0.0
  0
LINE
  5
10A5
330
1F
100
AcDbEntity
  8
0
  6
Continuous
 62
     7
370
    15
100
AcDbLine
 10
2.178809190468662
 20
4.365028292409494
 30
0.0
 11
2.16050655720808
 21
4.354461262169616
 31
0.0
  0
LINE
  5
10A6
330
1F
100
AcDbEntity
  8
0
  6
Continuous
 62
     7
370
    15
100
AcDbLine
 10
2.16050655720808
 20
4.444461262169616
 30
0.0
 11
2.16050655720808
 21
4.435595322649373
 31
0.0
  0
LINE
  5
10A7
330
1F
100
AcDbEntity
  8
0
  6
Continuous
 62
     7
370
    15
100
AcDbLine
 10
2.825506557208079
 20
4.435595322649373
 30
0.0
 11
2.825506557208079
 21
4.444461262169616
 31
0.0
  0
LINE
  5
10A8
330
1F
100
AcDbEntity
  8
0
  6
Continuous
 62
     7
370
    15
100
AcDbLine
 10
2.16050655720808
 20
4.414461262169616
 30
0.0
 11
2.16050655720808
 21
4.405595322649373
 31
0.0
  0
LINE
  5
10A9
330
1F
100
AcDbEntity
  8
0
  6
Continuous
 62
     7
370
    15
100
AcDbLine
 10
2.825506557208079
 20
4.405595322649373
 30
0.0
 11
2.825506557208079
 21
4.414461262169616
 31
0.0
  0
LINE
  5
10AA
330
1F
100
AcDbEntity
  8
0
  6
Continuous
 62
     7
370
    15
100
AcDbLine
 10
2.16050655720808
 20
4.294461262169617
 30
0.0
 11
2.16050655720808
 21
4.285595322649374
 31
0.0
  0
LINE
  5
10AB
330
1F
100
AcDbEntity
  8
0
  6
Continuous
 62
     7
370
    15
100
AcDbLine
 10
2.825506557208079
 20
4.285595322649374
 30
0.0
 11
2.825506557208079
 21
4.294461262169617
 31
0.0
  0
LINE
  5
10AC
330
1F
100
AcDbEntity
  8
0
  6
Continuous
 62
     7
370
    15
100
AcDbLine
 10
2.16050655720808
 20
4.174461262169616
 30
0.0
 11
2.16050655720808
 21
4.165595322649373
 31
0.0
  0
LINE
  5
10AD
330
1F
100
AcDbEntity
  8
0
  6
Continuous
 62
     7
370
    15
100
AcDbLine
 10
2.825506557208079
 20
4.165595322649373
 30
0.0
 11
2.825506557208079
 21
4.174461262169616
 31
0.0
  0
LINE
  5
10AE
330
1F
100
AcDbEntity
  8
0
  6
Continuous
 62
     7
370
    15
100
AcDbLine
 10
2.16050655720808
 20
4.234461262169615
 30
0.0
 11
2.16050655720808
 21
4.225595322649372
 31
0.0
  0
LINE
  5
10AF
330
1F
100
AcDbEntity
  8
0
  6
Continuous
 62
     7
370
    15
100
AcDbLine
 10
2.825506557208079
 20
4.225595322649372
 30
0.0
 11
2.825506557208079
 21
4.234461262169615
 31
0.0
  0
LINE
  5
10B0
330
1F
100
AcDbEntity
  8
0
  6
Continuous
 62
     7
370
    15
100
AcDbLine
 10
2.16050655720808
 20
4.165595322649373
 30
0.0
 11
2.178809190468662
 21
4.155028292409495
 31
0.0
  0
LINE
  5
10B1
330
1F
100
AcDbEntity
  8
0
  6
Continuous
 62
     7
370
    15
100
AcDbLine
 10
2.80720392394749
 20
4.155028292409495
 30
0.0
 11
2.825506557208079
 21
4.165595322649373
 31
0.0
  0
LINE
  5
10B2
330
1F
100
AcDbEntity
  8
0
  6
Continuous
 62
     7
370
    15
100
AcDbLine
 10
2.16050655720808
 20
4.465595322649374
 30
0.0
 11
2.178809190468662
 21
4.455028292409494
 31
0.0
  0
LINE
  5
10B3
330
1F
100
AcDbEntity
  8
0
  6
Continuous
 62
     7
370
    15
100
AcDbLine
 10
2.80720392394749
 20
4.455028292409494
 30
0.0
 11
2.825506557208079
 21
4.465595322649374
 31
0.0
  0
LINE
  5
10B4
330
1F
100
AcDbEntity
  8
0
  6
Continuous
 62
     7
370
    15
100
AcDbLine
 10
2.16050655720808
 20
4.114461262169616
 30
0.0
 11
2.16050655720808
 21
4.105595322649373
 31
0.0
  0
LINE
  5
10B5
330
1F
100
AcDbEntity
  8
0
  6
Continuous
 62
     7
370
    15
100
AcDbLine
 10
2.825506557208079
 20
4.105595322649373
 30
0.0
 11
2.825506557208079
 21
4.114461262169616
 31
0.0
  0
LINE
  5
10B6
330
1F
100
AcDbEntity
  8
0
  6
Continuous
 62
     7
370
    15
100
AcDbLine
 10
2.16050655720808
 20
4.510028292409495
 30
0.0
 11
2.16050655720808
 21
4.465595322649374
 31
0.0
  0
LINE
  5
10B7
330
1F
100
AcDbEntity
  8
0
  6
Continuous
 62
     7
370
    15
100
AcDbLine
 10
2.825506557208079
 20
4.465595322649374
 30
0.0
 11
2.825506557208079
 21
4.510028292409495
 31
0.0
  0
LINE
  5
10B8
330
1F
100
AcDbEntity
  8
0
  6
Continuous
 62
     7
370
    15
100
AcDbLine
 10
2.16050655720808
 20
4.264461262169614
 30
0.0
 11
2.16050655720808
 21
4.255595322649375
 31
0.0
  0
LINE
  5
10B9
330
1F
100
AcDbEntity
  8
0
  6
Continuous
 62
     7
370
    15
100
AcDbLine
 10
2.825506557208079
 20
4.255595322649375
 30
0.0
 11
2.825506557208079
 21
4.264461262169614
 31
0.0
  0
LINE
  5
10BA
330
1F
100
AcDbEntity
  8
0
  6
Continuous
 62
     7
370
    15
100
AcDbLine
 10
2.687686931523433
 20
2.62890343606573
 30
0.0
 11
2.687686931523433
 21
2.818903436065731
 31
0.0
  0
LINE
  5
10BB
330
1F
100
AcDbEntity
  8
0
  6
Continuous
 62
     7
370
    15
100
AcDbLine
 10
2.708900134959026
 20
2.818903436065731
 30
0.0
 11
2.708900134959026
 21
2.62890343606573
 31
0.0
  0
LINE
  5
10BC
330
1F
100
AcDbEntity
  8
0
  6
Continuous
 62
     7
370
    15
100
AcDbLine
 10
2.687686931523433
 20
2.818903436065731
 30
0.0
 11
2.708900134959026
 21
2.818903436065731
 31
0.0
  0
LINE
  5
10BD
330
1F
100
AcDbEntity
  8
0
  6
Continuous
 62
     7
370
    15
100
AcDbLine
 10
2.708900134959026
 20
2.62890343606573
 30
0.0
 11
2.687686931523433
 21
2.62890343606573
 31
0.0
  0
LINE
  5
10BE
330
1F
100
AcDbEntity
  8
0
  6
Continuous
 62
     7
370
    15
100
AcDbLine
 10
2.298326182892722
 20
2.818903436065731
 30
0.0
 11
2.298326182892722
 21
2.62890343606573
 31
0.0
  0
LINE
  5
10BF
330
1F
100
AcDbEntity
  8
0
  6
Continuous
 62
     7
370
    15
100
AcDbLine
 10
2.687686931523433
 20
2.818903436065731
 30
0.0
 11
2.298326182892722
 21
2.818903436065731
 31
0.0
  0
LINE
  5
10C0
330
1F
100
AcDbEntity
  8
0
  6
Continuous
 62
     7
370
    15
100
AcDbLine
 10
2.687686931523433
 20
2.62890343606573
 30
0.0
 11
2.298326182892722
 21
2.62890343606573
 31
0.0
  0
LINE
  5
10C1
330
1F
100
AcDbEntity
  8
0
  6
Continuous
 62
     7
370
    15
100
AcDbLine
 10
2.277112979457125
 20
2.62890343606573
 30
0.0
 11
2.277112979457125
 21
2.818903436065731
 31
0.0
  0
LINE
  5
10C2
330
1F
100
AcDbEntity
  8
0
  6
Continuous
 62
     7
370
    15
100
AcDbLine
 10
2.277112979457125
 20
2.818903436065731
 30
0.0
 11
2.298326182892722
 21
2.818903436065731
 31
0.0
  0
LINE
  5
10C3
330
1F
100
AcDbEntity
  8
0
  6
Continuous
 62
     7
370
    15
100
AcDbLine
 10
2.298326182892722
 20
2.62890343606573
 30
0.0
 11
2.277112979457125
 21
2.62890343606573
 31
0.0
  0
LINE
  5
10C4
330
1F
100
AcDbEntity
  8
0
  6
Continuous
 62
     7
370
    15
100
AcDbLine
 10
2.984219760643679
 20
2.62890343606573
 30
0.0
 11
2.984219760643679
 21
2.818903436065731
 31
0.0
  0
LINE
  5
10C5
330
1F
100
AcDbEntity
  8
0
  6
Continuous
 62
     7
370
    15
100
AcDbLine
 10
2.984219760643679
 20
2.818903436065731
 30
0.0
 11
2.708900134959026
 21
2.818903436065731
 31
0.0
  0
LINE
  5
10C6
330
1F
100
AcDbEntity
  8
0
  6
Continuous
 62
     7
370
    15
100
AcDbLine
 10
2.984219760643679
 20
2.62890343606573
 30
0.0
 11
2.708900134959026
 21
2.62890343606573
 31
0.0
  0
LINE
  5
10C7
330
1F
100
AcDbEntity
  8
0
  6
Continuous
 62
     7
370
    15
100
AcDbLine
 10
2.00179335377248
 20
2.818903436065731
 30
0.0
 11
2.00179335377248
 21
2.62890343606573
 31
0.0
  0
LINE
  5
10C8
330
1F
100
AcDbEntity
  8
0
  6
Continuous
 62
     7
370
    15
100
AcDbLine
 10
2.277112979457125
 20
2.818903436065731
 30
0.0
 11
2.00179335377248
 21
2.818903436065731
 31
0.0
  0
LINE
  5
10C9
330
1F
100
AcDbEntity
  8
0
  6
Continuous
 62
     7
370
    15
100
AcDbLine
 10
2.277112979457125
 20
2.62890343606573
 30
0.0
 11
2.00179335377248
 21
2.62890343606573
 31
0.0
  0
LINE
  5
10CA
330
1F
100
AcDbEntity
  8
0
  6
Continuous
 62
     7
370
    15
100
AcDbLine
 10
2.993006557208079
 20
2.818903436065731
 30
0.0
 11
2.993006557208079
 21
2.62890343606573
 31
0.0
  0
LINE
  5
10CB
330
1F
100
AcDbEntity
  8
0
  6
Continuous
 62
     7
370
    15
100
AcDbLine
 10
2.984219760643679
 20
2.818903436065731
 30
0.0
 11
2.993006557208079
 21
2.818903436065731
 31
0.0
  0
LINE
  5
10CC
330
1F
100
AcDbEntity
  8
0
  6
Continuous
 62
     7
370
    15
100
AcDbLine
 10
2.993006557208079
 20
2.62890343606573
 30
0.0
 11
2.984219760643679
 21
2.62890343606573
 31
0.0
  0
LINE
  5
10CD
330
1F
100
AcDbEntity
  8
0
  6
Continuous
 62
     7
370
    15
100
AcDbLine
 10
1.993006557208076
 20
2.62890343606573
 30
0.0
 11
1.993006557208076
 21
2.818903436065731
 31
0.0
  0
LINE
  5
10CE
330
1F
100
AcDbEntity
  8
0
  6
Continuous
 62
     7
370
    15
100
AcDbLine
 10
1.993006557208076
 20
2.818903436065731
 30
0.0
 11
2.00179335377248
 21
2.818903436065731
 31
0.0
  0
LINE
  5
10CF
330
1F
100
AcDbEntity
  8
0
  6
Continuous
 62
     7
370
    15
100
AcDbLine
 10
2.00179335377248
 20
2.62890343606573
 30
0.0
 11
1.993006557208076
 21
2.62890343606573
 31
0.0
  0
LINE
  5
10D0
330
1F
100
AcDbEntity
  8
0
  6
Continuous
 62
     7
370
    15
100
AcDbLine
 10
2.933006557208077
 20
3.27553528888195
 30
0.0
 11
2.053006557208075
 21
3.27553528888195
 31
0.0
  0
LINE
  5
10D1
330
1F
100
AcDbEntity
  8
0
  6
Continuous
 62
     7
370
    15
100
AcDbLine
 10
2.933006557208077
 20
3.335535288881949
 30
0.0
 11
2.053006557208075
 21
3.335535288881949
 31
0.0
  0
LINE
  5
10D2
330
1F
100
AcDbEntity
  8
0
  6
Continuous
 62
     7
370
    15
100
AcDbLine
 10
1.574609416199884
 20
5.005441107646387
 30
0.0
 11
3.167006557208081
 21
5.005441107646387
 31
0.0
  0
LINE
  5
10D3
330
1F
100
AcDbEntity
  8
0
  6
Continuous
 62
     7
370
    15
100
AcDbLine
 10
1.540386737026299
 20
5.063721262321095
 30
0.0
 11
1.574609416199884
 21
5.005441107646387
 31
0.0
  0
LINE
  5
10D4
330
1F
100
AcDbEntity
  8
0
  6
Continuous
 62
     7
370
    15
100
AcDbLine
 10
1.540386737026299
 20
5.063721262321095
 30
0.0
 11
3.130140010265447
 21
5.063721262321095
 31
0.0
  0
SPLINE
  5
10D5
330
1F
100
AcDbEntity
  8
0
  6
Continuous
 62
     7
370
    15
100
AcDbSpline
210
0.0
220
0.0
230
1.0
 70
     8
 71
     3
 72
    14
 73
    10
 74
     0
 42
0.0000000001
 43
0.0000000001
 40
0.0
 40
0.0
 40
0.0
 40
0.0
 40
0.25
 40
0.25
 40
0.5
 40
0.5
 40
0.75
 40
0.75
 40
1.0
 40
1.0
 40
1.0
 40
1.0
 10
3.167006557208081
 20
5.008118587799001
 30
0.0
 10
3.166342249236175
 20
5.015223679148824
 30
0.0
 10
3.164644661561636
 20
5.021866584483587
 30
0.0
 10
3.159719030051631
 20
5.034068769679295
 30
0.0
 10
3.156559296579706
 20
5.039448775664455
 30
0.0
 10
3.149516597564778
 20
5.048766061259092
 30
0.0
 10
3.145687512837733
 20
5.052648315052083
 30
0.0
 10
3.137796384902015
 20
5.059181167451079
 30
0.0
 10
3.133730982573331
 20
5.061791771438011
 30
0.0
 10
3.130140010265447
 20
5.063721262321095
 30
0.0
  0
LINE
  5
10D6
330
1F
100
AcDbEntity
  8
0
  6
Continuous
 62
     7
370
    15
100
AcDbLine
 10
1.574609416199884
 20
5.005441107646387
 30
0.0
 11
1.579656022258006
 21
4.99684689501452
 31
0.0
  0
LINE
  5
10D7
330
1F
100
AcDbEntity
  8
0
  6
Continuous
 62
     7
370
    15
100
AcDbLine
 10
3.167006557208081
 20
5.008118587799001
 30
0.0
 11
3.167006557208081
 21
5.005441107646387
 31
0.0
  0
ARC
  5
10D8
330
1F
100
AcDbEntity
  8
0
  6
Continuous
 62
     7
370
    15
100
AcDbCircle
 10
3.096733372501995
 20
5.001548223744158
 30
0.0
 40
0.0705796725165885
100
AcDbArc
 50
354.6585188833575
 51
5.341481116636117
  0
LINE
  5
10D9
330
1F
100
AcDbEntity
  8
0
  6
Continuous
 62
     7
370
    15
100
AcDbLine
 10
3.167006557208081
 20
4.99684689501452
 30
0.0
 11
3.167006557208081
 21
4.994977859689306
 31
0.0
  0
LINE
  5
10DA
330
1F
100
AcDbEntity
  8
0
  6
Continuous
 62
     7
370
    15
100
AcDbLine
 10
3.167006557208081
 20
4.99684689501452
 30
0.0
 11
1.579656022258006
 21
4.99684689501452
 31
0.0
  0
LINE
  5
10DB
330
1F
100
AcDbEntity
  8
0
  6
Continuous
 62
     7
370
    15
100
AcDbLine
 10
3.167006557208081
 20
4.994977859689313
 30
0.0
 11
3.167006557208081
 21
4.625028292409496
 31
0.0
  0
LINE
  5
10DC
330
1F
100
AcDbEntity
  8
0
  6
Continuous
 62
     7
370
    15
100
AcDbLine
 10
1.79799155720546
 20
4.625028292409496
 30
0.0
 11
3.167006557208081
 21
4.625028292409496
 31
0.0
  0
LINE
  5
10DD
330
1F
100
AcDbEntity
  8
0
  6
Continuous
 62
     7
370
    15
100
AcDbLine
 10
1.579656022258006
 20
4.99684689501452
 30
0.0
 11
1.79799155720546
 21
4.625028292409496
 31
0.0
  0
LINE
  5
10DE
330
1F
100
AcDbEntity
  8
0
  6
Continuous
 62
     7
370
    15
100
AcDbLine
 10
2.024006557208078
 20
4.510028292409495
 30
0.0
 11
2.962006557208077
 21
4.510028292409495
 31
0.0
  0
SPLINE
  5
10DF
330
1F
100
AcDbEntity
  8
0
  6
Continuous
 62
     7
370
    15
100
AcDbSpline
210
0.0
220
0.0
230
1.0
 70
     8
 71
     3
 72
    17
 73
    13
 74
     0
 42
0.0000000001
 43
0.0000000001
 40
0.0
 40
0.0
 40
0.0
 40
0.0
 40
0.1967380499472815
 40
0.3938565970918772
 40
0.5350666206747522
 40
0.6764655242865885
 40
0.7595222664874787
 40
0.8428520200361388
 40
0.8896931370917624
 40
0.9370834985019973
 40
0.9709773549980585
 40
0.9999999999999998
 40
0.9999999999999998
 40
0.9999999999999998
 40
0.9999999999999998
 10
3.120526482935153
 20
5.067996534997821
 30
0.0
 10
3.096343403454307
 20
5.076171973936105
 30
0.0
 10
3.047930473702892
 20
5.092538663352961
 30
0.0
 10
2.979915970457973
 20
5.109263062585089
 30
0.0
 10
2.921282574345713
 20
5.121248757204721
 30
0.0
 10
2.87746190498489
 20
5.128249421002459
 30
0.0
 10
2.84226848752694
 20
5.132744687091497
 30
0.0
 10
2.819615481590115
 20
5.135116278190698
 30
0.0
 10
2.803348006483187
 20
5.136569951721845
 30
0.0
 10
2.79416894528946
 20
5.137301670218999
 30
0.0
 10
2.788980056132722
 20
5.137685706350117
 30
0.0
 10
2.788657689135217
 20
5.13770871695463
 30
0.0
 10
2.788508985016168
 20
5.137719331476896
 30
0.0
  0
LINE
  5
10E0
330
1F
100
AcDbEntity
  8
0
  6
Continuous
 62
     7
370
    15
100
AcDbLine
 10
1.496923605379986
 20
5.137737619197961
 30
0.0
 11
1.540386737026302
 21
5.063721262321086
 31
0.0
  0
SPLINE
  5
10E1
330
1F
100
AcDbEntity
  8
0
  6
Continuous
 62
     7
370
    15
100
AcDbSpline
210
0.0
220
0.0
230
1.0
 70
     8
 71
     3
 72
     8
 73
     4
 74
     0
 42
0.0000000001
 43
0.0000000001
 40
0.0
 40
0.0
 40
0.0
 40
0.0
 40
1.0
 40
1.0
 40
1.0
 40
1.0
 10
3.130140010265447
 20
5.063721262321095
 30
0.0
 10
3.127301922499496
 20
5.065246215453647
 30
0.0
 10
3.124183417339368
 20
5.066687098497711
 30
0.0
 10
3.120526482935153
 20
5.067996534997821
 30
0.0
  0
LINE
  5
10E2
330
1F
100
AcDbEntity
  8
0
  6
Continuous
 62
     7
370
    15
100
AcDbLine
 10
2.16050655720808
 20
4.054461262169617
 30
0.0
 11
2.825506557208079
 21
4.054461262169617
 31
0.0
  0
LINE
  5
10E3
330
1F
100
AcDbEntity
  8
0
  6
Continuous
 62
     7
370
    15
100
AcDbLine
 10
2.16050655720808
 20
4.045595322649374
 30
0.0
 11
2.825506557208079
 21
4.045595322649374
 31
0.0
  0
LINE
  5
10E4
330
1F
100
AcDbEntity
  8
0
  6
Continuous
 62
     7
370
    15
100
AcDbLine
 10
2.178809190468662
 20
4.035028292409494
 30
0.0
 11
2.80720392394749
 21
4.035028292409494
 31
0.0
  0
LINE
  5
10E5
330
1F
100
AcDbEntity
  8
0
  6
Continuous
 62
     7
370
    15
100
AcDbLine
 10
2.16050655720808
 20
4.024461262169616
 30
0.0
 11
2.825506557208079
 21
4.024461262169616
 31
0.0
  0
LINE
  5
10E6
330
1F
100
AcDbEntity
  8
0
  6
Continuous
 62
     7
370
    15
100
AcDbLine
 10
2.16050655720808
 20
4.405595322649373
 30
0.0
 11
2.825506557208079
 21
4.405595322649373
 31
0.0
  0
LINE
  5
10E7
330
1F
100
AcDbEntity
  8
0
  6
Continuous
 62
     7
370
    15
100
AcDbLine
 10
2.178809190468662
 20
4.395028292409495
 30
0.0
 11
2.80720392394749
 21
4.395028292409495
 31
0.0
  0
LINE
  5
10E8
330
1F
100
AcDbEntity
  8
0
  6
Continuous
 62
     7
370
    15
100
AcDbLine
 10
2.178809190468662
 20
4.425028292409495
 30
0.0
 11
2.80720392394749
 21
4.425028292409495
 31
0.0
  0
LINE
  5
10E9
330
1F
100
AcDbEntity
  8
0
  6
Continuous
 62
     7
370
    15
100
AcDbLine
 10
2.16050655720808
 20
4.414461262169616
 30
0.0
 11
2.825506557208079
 21
4.414461262169616
 31
0.0
  0
LINE
  5
10EA
330
1F
100
AcDbEntity
  8
0
  6
Continuous
 62
     7
370
    15
100
AcDbLine
 10
2.16050655720808
 20
4.324461262169617
 30
0.0
 11
2.825506557208079
 21
4.324461262169617
 31
0.0
  0
LINE
  5
10EB
330
1F
100
AcDbEntity
  8
0
  6
Continuous
 62
     7
370
    15
100
AcDbLine
 10
2.16050655720808
 20
4.315595322649373
 30
0.0
 11
2.825506557208079
 21
4.315595322649373
 31
0.0
  0
LINE
  5
10EC
330
1F
100
AcDbEntity
  8
0
  6
Continuous
 62
     7
370
    15
100
AcDbLine
 10
2.16050655720808
 20
4.204461262169616
 30
0.0
 11
2.825506557208079
 21
4.204461262169616
 31
0.0
  0
LINE
  5
10ED
330
1F
100
AcDbEntity
  8
0
  6
Continuous
 62
     7
370
    15
100
AcDbLine
 10
2.16050655720808
 20
4.195595322649372
 30
0.0
 11
2.825506557208079
 21
4.195595322649372
 31
0.0
  0
LINE
  5
10EE
330
1F
100
AcDbEntity
  8
0
  6
Continuous
 62
     7
370
    15
100
AcDbLine
 10
2.16050655720808
 20
4.354461262169616
 30
0.0
 11
2.825506557208079
 21
4.354461262169616
 31
0.0
  0
LINE
  5
10EF
330
1F
100
AcDbEntity
  8
0
  6
Continuous
 62
     7
370
    15
100
AcDbLine
 10
2.16050655720808
 20
4.345595322649373
 30
0.0
 11
2.825506557208079
 21
4.345595322649373
 31
0.0
  0
LINE
  5
10F0
330
1F
100
AcDbEntity
  8
0
  6
Continuous
 62
     7
370
    15
100
AcDbLine
 10
2.178809190468662
 20
4.155028292409495
 30
0.0
 11
2.80720392394749
 21
4.155028292409495
 31
0.0
  0
LINE
  5
10F1
330
1F
100
AcDbEntity
  8
0
  6
Continuous
 62
     7
370
    15
100
AcDbLine
 10
2.16050655720808
 20
4.144461262169615
 30
0.0
 11
2.825506557208079
 21
4.144461262169615
 31
0.0
  0
LINE
  5
10F2
330
1F
100
AcDbEntity
  8
0
  6
Continuous
 62
     7
370
    15
100
AcDbLine
 10
2.178809190468662
 20
4.455028292409494
 30
0.0
 11
2.80720392394749
 21
4.455028292409494
 31
0.0
  0
LINE
  5
10F3
330
1F
100
AcDbEntity
  8
0
  6
Continuous
 62
     7
370
    15
100
AcDbLine
 10
2.16050655720808
 20
4.444461262169616
 30
0.0
 11
2.825506557208079
 21
4.444461262169616
 31
0.0
  0
LINE
  5
10F4
330
1F
100
AcDbEntity
  8
0
  6
Continuous
 62
     7
370
    15
100
AcDbLine
 10
2.16050655720808
 20
4.375595322649374
 30
0.0
 11
2.825506557208079
 21
4.375595322649374
 31
0.0
  0
LINE
  5
10F5
330
1F
100
AcDbEntity
  8
0
  6
Continuous
 62
     7
370
    15
100
AcDbLine
 10
2.178809190468662
 20
4.365028292409494
 30
0.0
 11
2.80720392394749
 21
4.365028292409494
 31
0.0
  0
LINE
  5
10F6
330
1F
100
AcDbEntity
  8
0
  6
Continuous
 62
     7
370
    15
100
AcDbLine
 10
2.16050655720808
 20
4.384461262169615
 30
0.0
 11
2.825506557208079
 21
4.384461262169615
 31
0.0
  0
LINE
  5
10F7
330
1F
100
AcDbEntity
  8
0
  6
Continuous
 62
     7
370
    15
100
AcDbLine
 10
2.16050655720808
 20
4.075595322649373
 30
0.0
 11
2.825506557208079
 21
4.075595322649373
 31
0.0
  0
LINE
  5
10F8
330
1F
100
AcDbEntity
  8
0
  6
Continuous
 62
     7
370
    15
100
AcDbLine
 10
2.178809190468662
 20
4.065028292409495
 30
0.0
 11
2.80720392394749
 21
4.065028292409495
 31
0.0
  0
LINE
  5
10F9
330
1F
100
AcDbEntity
  8
0
  6
Continuous
 62
     7
370
    15
100
AcDbLine
 10
2.16050655720808
 20
4.010028292409495
 30
0.0
 11
2.825506557208079
 21
4.010028292409495
 31
0.0
  0
LINE
  5
10FA
330
1F
100
AcDbEntity
  8
0
  6
Continuous
 62
     7
370
    15
100
AcDbLine
 10
2.16050655720808
 20
4.225595322649372
 30
0.0
 11
2.825506557208079
 21
4.225595322649372
 31
0.0
  0
LINE
  5
10FB
330
1F
100
AcDbEntity
  8
0
  6
Continuous
 62
     7
370
    15
100
AcDbLine
 10
2.178809190468662
 20
4.215028292409494
 30
0.0
 11
2.80720392394749
 21
4.215028292409494
 31
0.0
  0
LINE
  5
10FC
330
1F
100
AcDbEntity
  8
0
  6
Continuous
 62
     7
370
    15
100
AcDbLine
 10
2.16050655720808
 20
4.435595322649373
 30
0.0
 11
2.825506557208079
 21
4.435595322649373
 31
0.0
  0
LINE
  5
10FD
330
1F
100
AcDbEntity
  8
0
  6
Continuous
 62
     7
370
    15
100
AcDbLine
 10
2.16050655720808
 20
4.255595322649375
 30
0.0
 11
2.825506557208079
 21
4.255595322649375
 31
0.0
  0
LINE
  5
10FE
330
1F
100
AcDbEntity
  8
0
  6
Continuous
 62
     7
370
    15
100
AcDbLine
 10
2.178809190468662
 20
4.245028292409493
 30
0.0
 11
2.80720392394749
 21
4.245028292409493
 31
0.0
  0
LINE
  5
10FF
330
1F
100
AcDbEntity
  8
0
  6
Continuous
 62
     7
370
    15
100
AcDbLine
 10
2.178809190468662
 20
4.095028292409494
 30
0.0
 11
2.80720392394749
 21
4.095028292409494
 31
0.0
  0
LINE
  5
1100
330
1F
100
AcDbEntity
  8
0
  6
Continuous
 62
     7
370
    15
100
AcDbLine
 10
2.16050655720808
 20
4.084461262169616
 30
0.0
 11
2.825506557208079
 21
4.084461262169616
 31
0.0
  0
LINE
  5
1101
330
1F
100
AcDbEntity
  8
0
  6
Continuous
 62
     7
370
    15
100
AcDbLine
 10
2.16050655720808
 20
4.105595322649373
 30
0.0
 11
2.825506557208079
 21
4.105595322649373
 31
0.0
  0
LINE
  5
1102
330
1F
100
AcDbEntity
  8
0
  6
Continuous
 62
     7
370
    15
100
AcDbLine
 10
2.16050655720808
 20
4.135595322649374
 30
0.0
 11
2.825506557208079
 21
4.135595322649374
 31
0.0
  0
LINE
  5
1103
330
1F
100
AcDbEntity
  8
0
  6
Continuous
 62
     7
370
    15
100
AcDbLine
 10
2.178809190468662
 20
4.125028292409494
 30
0.0
 11
2.80720392394749
 21
4.125028292409494
 31
0.0
  0
LINE
  5
1104
330
1F
100
AcDbEntity
  8
0
  6
Continuous
 62
     7
370
    15
100
AcDbLine
 10
2.178809190468662
 20
4.305028292409495
 30
0.0
 11
2.80720392394749
 21
4.305028292409495
 31
0.0
  0
LINE
  5
1105
330
1F
100
AcDbEntity
  8
0
  6
Continuous
 62
     7
370
    15
100
AcDbLine
 10
2.178809190468662
 20
4.185028292409494
 30
0.0
 11
2.80720392394749
 21
4.185028292409494
 31
0.0
  0
LINE
  5
1106
330
1F
100
AcDbEntity
  8
0
  6
Continuous
 62
     7
370
    15
100
AcDbLine
 10
2.16050655720808
 20
4.174461262169616
 30
0.0
 11
2.825506557208079
 21
4.174461262169616
 31
0.0
  0
LINE
  5
1107
330
1F
100
AcDbEntity
  8
0
  6
Continuous
 62
     7
370
    15
100
AcDbLine
 10
2.16050655720808
 20
4.234461262169615
 30
0.0
 11
2.825506557208079
 21
4.234461262169615
 31
0.0
  0
LINE
  5
1108
330
1F
100
AcDbEntity
  8
0
  6
Continuous
 62
     7
370
    15
100
AcDbLine
 10
2.178809190468662
 20
4.335028292409495
 30
0.0
 11
2.80720392394749
 21
4.335028292409495
 31
0.0
  0
LINE
  5
1109
330
1F
100
AcDbEntity
  8
0
  6
Continuous
 62
     7
370
    15
100
AcDbLine
 10
2.178809190468662
 20
4.275028292409496
 30
0.0
 11
2.80720392394749
 21
4.275028292409496
 31
0.0
  0
LINE
  5
110A
330
1F
100
AcDbEntity
  8
0
  6
Continuous
 62
     7
370
    15
100
AcDbLine
 10
2.16050655720808
 20
4.264461262169614
 30
0.0
 11
2.825506557208079
 21
4.264461262169614
 31
0.0
  0
LINE
  5
110B
330
1F
100
AcDbEntity
  8
0
  6
Continuous
 62
     7
370
    15
100
AcDbLine
 10
2.16050655720808
 20
4.285595322649374
 30
0.0
 11
2.825506557208079
 21
4.285595322649374
 31
0.0
  0
LINE
  5
110C
330
1F
100
AcDbEntity
  8
0
  6
Continuous
 62
     7
370
    15
100
AcDbLine
 10
2.16050655720808
 20
4.294461262169617
 30
0.0
 11
2.825506557208079
 21
4.294461262169617
 31
0.0
  0
LINE
  5
110D
330
1F
100
AcDbEntity
  8
0
  6
Continuous
 62
     7
370
    15
100
AcDbLine
 10
2.16050655720808
 20
4.114461262169616
 30
0.0
 11
2.825506557208079
 21
4.114461262169616
 31
0.0
  0
LINE
  5
110E
330
1F
100
AcDbEntity
  8
0
  6
Continuous
 62
     7
370
    15
100
AcDbLine
 10
2.16050655720808
 20
4.165595322649373
 30
0.0
 11
2.825506557208079
 21
4.165595322649373
 31
0.0
  0
LINE
  5
110F
330
1F
100
AcDbEntity
  8
0
  6
Continuous
 62
     7
370
    15
100
AcDbLine
 10
2.16050655720808
 20
4.465595322649374
 30
0.0
 11
2.825506557208079
 21
4.465595322649374
 31
0.0
  0
LINE
  5
1110
330
1F
100
AcDbEntity
  8
0
  6
HIDDEN
 62
     7
370
     0
100
AcDbLine
 10
2.82800655720808
 20
2.645083721348111
 30
0.0
 11
2.158006557208075
 21
2.645083721348111
 31
0.0
  0
LINE
  5
1111
330
1F
100
AcDbEntity
  8
0
  6
HIDDEN
 62
     7
370
     0
100
AcDbLine
 10
2.857295289302278
 20
2.661993578706919
 30
0.0
 11
2.128717825113877
 21
2.661993578706919
 31
0.0
  0
LINE
  5
1112
330
1F
100
AcDbEntity
  8
0
  6
HIDDEN
 62
     7
370
     0
100
AcDbLine
 10
2.82800655720808
 20
2.680083721348109
 30
0.0
 11
2.158006557208075
 21
2.680083721348109
 31
0.0
  0
LINE
  5
1113
330
1F
100
AcDbEntity
  8
0
  6
HIDDEN
 62
     7
370
     0
100
AcDbLine
 10
2.857295289302278
 20
2.696993578706921
 30
0.0
 11
2.128717825113877
 21
2.696993578706921
 31
0.0
  0
LINE
  5
1114
330
1F
100
AcDbEntity
  8
0
  6
HIDDEN
 62
     7
370
     0
100
AcDbLine
 10
2.857295289302278
 20
2.80199357870692
 30
0.0
 11
2.128717825113877
 21
2.80199357870692
 31
0.0
  0
LINE
  5
1115
330
1F
100
AcDbEntity
  8
0
  6
HIDDEN
 62
     7
370
     0
100
AcDbLine
 10
2.857295289302278
 20
2.731993578706919
 30
0.0
 11
2.128717825113877
 21
2.731993578706919
 31
0.0
  0
LINE
  5
1116
330
1F
100
AcDbEntity
  8
0
  6
HIDDEN
 62
     7
370
     0
100
AcDbLine
 10
2.82800655720808
 20
2.748903436065731
 30
0.0
 11
2.158006557208075
 21
2.748903436065731
 31
0.0
  0
LINE
  5
1117
330
1F
100
AcDbEntity
  8
0
  6
HIDDEN
 62
     7
370
     0
100
AcDbLine
 10
2.82800655720808
 20
2.678903436065731
 30
0.0
 11
2.158006557208075
 21
2.678903436065731
 31
0.0
  0
LINE
  5
1118
330
1F
100
AcDbEntity
  8
0
  6
HIDDEN
 62
     7
370
     0
100
AcDbLine
 10
2.82800655720808
 20
2.78508372134811
 30
0.0
 11
2.158006557208075
 21
2.78508372134811
 31
0.0
  0
LINE
  5
1119
330
1F
100
AcDbEntity
  8
0
  6
HIDDEN
 62
     7
370
     0
100
AcDbLine
 10
2.857295289302278
 20
2.766993578706919
 30
0.0
 11
2.128717825113877
 21
2.766993578706919
 31
0.0
  0
LINE
  5
111A
330
1F
100
AcDbEntity
  8
0
  6
HIDDEN
 62
     7
370
     0
100
AcDbLine
 10
2.82800655720808
 20
2.783903436065731
 30
0.0
 11
2.158006557208075
 21
2.783903436065731
 31
0.0
  0
LINE
  5
111B
330
1F
100
AcDbEntity
  8
0
  6
HIDDEN
 62
     7
370
     0
100
AcDbLine
 10
2.82800655720808
 20
2.75008372134811
 30
0.0
 11
2.158006557208075
 21
2.75008372134811
 31
0.0
  0
LINE
  5
111C
330
1F
100
AcDbEntity
  8
0
  6
HIDDEN
 62
     7
370
     0
100
AcDbLine
 10
2.82800655720808
 20
2.713903436065731
 30
0.0
 11
2.158006557208075
 21
2.713903436065731
 31
0.0
  0
LINE
  5
111D
330
1F
100
AcDbEntity
  8
0
  6
HIDDEN
 62
     7
370
     0
100
AcDbLine
 10
2.82800655720808
 20
2.715083721348108
 30
0.0
 11
2.158006557208075
 21
2.715083721348108
 31
0.0
  0
LINE
  5
111E
330
1F
100
AcDbEntity
  8
0
  6
HIDDEN
 62
     7
370
     0
100
AcDbLine
 10
2.82800655720808
 20
2.64390343606573
 30
0.0
 11
2.158006557208075
 21
2.64390343606573
 31
0.0
  0
LINE
  5
111F
330
1F
100
AcDbEntity
  8
0
  6
HIDDEN
 62
     7
370
     0
100
AcDbLine
 10
2.984219760643679
 20
2.818903436065731
 30
0.0
 11
2.984219760643679
 21
2.62890343606573
 31
0.0
  0
LINE
  5
1120
330
1F
100
AcDbEntity
  8
0
  6
HIDDEN
 62
     7
370
     0
100
AcDbLine
 10
2.00179335377248
 20
2.62890343606573
 30
0.0
 11
2.00179335377248
 21
2.818903436065731
 31
0.0
  0
LINE
  5
1121
330
1F
100
AcDbEntity
  8
0
  6
HIDDEN
 62
     7
370
     0
100
AcDbLine
 10
2.708900134959026
 20
2.62890343606573
 30
0.0
 11
2.708900134959026
 21
2.818903436065731
 31
0.0
  0
LINE
  5
1122
330
1F
100
AcDbEntity
  8
0
  6
HIDDEN
 62
     7
370
     0
100
AcDbLine
 10
2.277112979457125
 20
2.818903436065731
 30
0.0
 11
2.277112979457125
 21
2.62890343606573
 31
0.0
  0
LINE
  5
1123
330
1F
100
AcDbEntity
  8
0
  6
HIDDEN
 62
     7
370
     0
100
AcDbLine
 10
2.298326182892722
 20
2.62890343606573
 30
0.0
 11
2.298326182892722
 21
2.818903436065731
 31
0.0
  0
LINE
  5
1124
330
1F
100
AcDbEntity
  8
0
  6
HIDDEN
 62
     7
370
     0
100
AcDbLine
 10
2.687686931523433
 20
2.818903436065731
 30
0.0
 11
2.687686931523433
 21
2.62890343606573
 31
0.0
  0
LINE
  5
1125
330
1F
100
AcDbEntity
  8
0
  6
HIDDEN
 62
     7
370
     0
100
AcDbLine
 10
1.540386737026299
 20
5.063721262321095
 30
0.0
 11
3.130140010265447
 21
5.063721262321095
 31
0.0
  0
LINE
  5
1126
330
1F
100
AcDbEntity
  8
0
  6
HIDDEN
 62
     7
370
     0
100
AcDbLine
 10
1.575710913328723
 20
5.003565292409454
 30
0.0
 11
3.167006557208081
 21
5.003565292409454
 31
0.0
  0
LINE
  5
1127
330
1F
100
AcDbEntity
  8
0
  6
HIDDEN
 62
     7
370
     0
100
AcDbLine
 10
3.167006557208081
 20
4.99684689501452
 30
0.0
 11
3.167006557208081
 21
5.003565292409454
 31
0.0
  0
LINE
  5
1128
330
1F
100
AcDbEntity
  8
0
  6
HIDDEN
 62
     7
370
     0
100
AcDbLine
 10
3.167006557208081
 20
5.003565292409454
 30
0.0
 11
3.167006557208081
 21
5.005441107646387
 31
0.0
  0
LINE
  5
1129
330
1F
100
AcDbEntity
  8
0
  6
HIDDEN
 62
     7
370
     0
100
AcDbLine
 10
2.128717825113877
 20
2.661993578706919
 30
0.0
 11
2.158006557208075
 21
2.645083721348111
 31
0.0
  0
LINE
  5
112A
330
1F
100
AcDbEntity
  8
0
  6
HIDDEN
 62
     7
370
     0
100
AcDbLine
 10
2.82800655720808
 20
2.645083721348111
 30
0.0
 11
2.857295289302278
 21
2.661993578706919
 31
0.0
  0
LINE
  5
112B
330
1F
100
AcDbEntity
  8
0
  6
HIDDEN
 62
     7
370
     0
100
AcDbLine
 10
2.128717825113877
 20
2.696993578706921
 30
0.0
 11
2.158006557208075
 21
2.680083721348109
 31
0.0
  0
LINE
  5
112C
330
1F
100
AcDbEntity
  8
0
  6
HIDDEN
 62
     7
370
     0
100
AcDbLine
 10
2.82800655720808
 20
2.680083721348109
 30
0.0
 11
2.857295289302278
 21
2.696993578706921
 31
0.0
  0
LINE
  5
112D
330
1F
100
AcDbEntity
  8
0
  6
HIDDEN
 62
     7
370
     0
100
AcDbLine
 10
2.857295289302278
 20
2.80199357870692
 30
0.0
 11
2.82800655720808
 21
2.818903436065731
 31
0.0
  0
LINE
  5
112E
330
1F
100
AcDbEntity
  8
0
  6
HIDDEN
 62
     7
370
     0
100
AcDbLine
 10
2.158006557208075
 20
2.818903436065731
 30
0.0
 11
2.128717825113877
 21
2.80199357870692
 31
0.0
  0
LINE
  5
112F
330
1F
100
AcDbEntity
  8
0
  6
HIDDEN
 62
     7
370
     0
100
AcDbLine
 10
2.857295289302278
 20
2.731993578706919
 30
0.0
 11
2.82800655720808
 21
2.748903436065731
 31
0.0
  0
LINE
  5
1130
330
1F
100
AcDbEntity
  8
0
  6
HIDDEN
 62
     7
370
     0
100
AcDbLine
 10
2.158006557208075
 20
2.748903436065731
 30
0.0
 11
2.128717825113877
 21
2.731993578706919
 31
0.0
  0
LINE
  5
1131
330
1F
100
AcDbEntity
  8
0
  6
HIDDEN
 62
     7
370
     0
100
AcDbLine
 10
2.857295289302278
 20
2.661993578706919
 30
0.0
 11
2.82800655720808
 21
2.678903436065731
 31
0.0
  0
LINE
  5
1132
330
1F
100
AcDbEntity
  8
0
  6
HIDDEN
 62
     7
370
     0
100
AcDbLine
 10
2.158006557208075
 20
2.678903436065731
 30
0.0
 11
2.128717825113877
 21
2.661993578706919
 31
0.0
  0
LINE
  5
1133
330
1F
100
AcDbEntity
  8
0
  6
HIDDEN
 62
     7
370
     0
100
AcDbLine
 10
2.128717825113877
 20
2.80199357870692
 30
0.0
 11
2.158006557208075
 21
2.78508372134811
 31
0.0
  0
LINE
  5
1134
330
1F
100
AcDbEntity
  8
0
  6
HIDDEN
 62
     7
370
     0
100
AcDbLine
 10
2.82800655720808
 20
2.78508372134811
 30
0.0
 11
2.857295289302278
 21
2.80199357870692
 31
0.0
  0
LINE
  5
1135
330
1F
100
AcDbEntity
  8
0
  6
HIDDEN
 62
     7
370
     0
100
AcDbLine
 10
2.857295289302278
 20
2.766993578706919
 30
0.0
 11
2.82800655720808
 21
2.783903436065731
 31
0.0
  0
LINE
  5
1136
330
1F
100
AcDbEntity
  8
0
  6
HIDDEN
 62
     7
370
     0
100
AcDbLine
 10
2.158006557208075
 20
2.783903436065731
 30
0.0
 11
2.128717825113877
 21
2.766993578706919
 31
0.0
  0
LINE
  5
1137
330
1F
100
AcDbEntity
  8
0
  6
HIDDEN
 62
     7
370
     0
100
AcDbLine
 10
2.128717825113877
 20
2.766993578706919
 30
0.0
 11
2.158006557208075
 21
2.75008372134811
 31
0.0
  0
LINE
  5
1138
330
1F
100
AcDbEntity
  8
0
  6
HIDDEN
 62
     7
370
     0
100
AcDbLine
 10
2.82800655720808
 20
2.75008372134811
 30
0.0
 11
2.857295289302278
 21
2.766993578706919
 31
0.0
  0
LINE
  5
1139
330
1F
100
AcDbEntity
  8
0
  6
HIDDEN
 62
     7
370
     0
100
AcDbLine
 10
2.857295289302278
 20
2.696993578706921
 30
0.0
 11
2.82800655720808
 21
2.713903436065731
 31
0.0
  0
LINE
  5
113A
330
1F
100
AcDbEntity
  8
0
  6
HIDDEN
 62
     7
370
     0
100
AcDbLine
 10
2.158006557208075
 20
2.713903436065731
 30
0.0
 11
2.128717825113877
 21
2.696993578706921
 31
0.0
  0
LINE
  5
113B
330
1F
100
AcDbEntity
  8
0
  6
HIDDEN
 62
     7
370
     0
100
AcDbLine
 10
2.128717825113877
 20
2.731993578706919
 30
0.0
 11
2.158006557208075
 21
2.715083721348108
 31
0.0
  0
LINE
  5
113C
330
1F
100
AcDbEntity
  8
0
  6
HIDDEN
 62
     7
370
     0
100
AcDbLine
 10
2.82800655720808
 20
2.715083721348108
 30
0.0
 11
2.857295289302278
 21
2.731993578706919
 31
0.0
  0
LINE
  5
113D
330
1F
100
AcDbEntity
  8
0
  6
HIDDEN
 62
     7
370
     0
100
AcDbLine
 10
2.85398731932161
 20
2.62890343606573
 30
0.0
 11
2.82800655720808
 21
2.64390343606573
 31
0.0
  0
LINE
  5
113E
330
1F
100
AcDbEntity
  8
0
  6
HIDDEN
 62
     7
370
     0
100
AcDbLine
 10
2.158006557208075
 20
2.64390343606573
 30
0.0
 11
2.132025795094548
 21
2.62890343606573
 31
0.0
  0
LINE
  5
113F
330
1F
100
AcDbEntity
  8
0
  6
HIDDEN
 62
     7
370
     0
100
AcDbLine
 10
2.158006557208075
 20
2.75008372134811
 30
0.0
 11
2.158006557208075
 21
2.748903436065731
 31
0.0
  0
LINE
  5
1140
330
1F
100
AcDbEntity
  8
0
  6
HIDDEN
 62
     7
370
     0
100
AcDbLine
 10
2.82800655720808
 20
2.748903436065731
 30
0.0
 11
2.82800655720808
 21
2.75008372134811
 31
0.0
  0
LINE
  5
1141
330
1F
100
AcDbEntity
  8
0
  6
HIDDEN
 62
     7
370
     0
100
AcDbLine
 10
2.158006557208075
 20
2.78508372134811
 30
0.0
 11
2.158006557208075
 21
2.783903436065731
 31
0.0
  0
LINE
  5
1142
330
1F
100
AcDbEntity
  8
0
  6
HIDDEN
 62
     7
370
     0
100
AcDbLine
 10
2.82800655720808
 20
2.783903436065731
 30
0.0
 11
2.82800655720808
 21
2.78508372134811
 31
0.0
  0
LINE
  5
1143
330
1F
100
AcDbEntity
  8
0
  6
HIDDEN
 62
     7
370
     0
100
AcDbLine
 10
2.158006557208075
 20
2.680083721348109
 30
0.0
 11
2.158006557208075
 21
2.678903436065731
 31
0.0
  0
LINE
  5
1144
330
1F
100
AcDbEntity
  8
0
  6
HIDDEN
 62
     7
370
     0
100
AcDbLine
 10
2.82800655720808
 20
2.678903436065731
 30
0.0
 11
2.82800655720808
 21
2.680083721348109
 31
0.0
  0
LINE
  5
1145
330
1F
100
AcDbEntity
  8
0
  6
HIDDEN
 62
     7
370
     0
100
AcDbLine
 10
2.158006557208075
 20
2.645083721348111
 30
0.0
 11
2.158006557208075
 21
2.64390343606573
 31
0.0
  0
LINE
  5
1146
330
1F
100
AcDbEntity
  8
0
  6
HIDDEN
 62
     7
370
     0
100
AcDbLine
 10
2.82800655720808
 20
2.64390343606573
 30
0.0
 11
2.82800655720808
 21
2.645083721348111
 31
0.0
  0
LINE
  5
1147
330
1F
100
AcDbEntity
  8
0
  6
HIDDEN
 62
     7
370
     0
100
AcDbLine
 10
2.158006557208075
 20
2.715083721348108
 30
0.0
 11
2.158006557208075
 21
2.713903436065731
 31
0.0
  0
LINE
  5
1148
330
1F
100
AcDbEntity
  8
0
  6
HIDDEN
 62
     7
370
     0
100
AcDbLine
 10
2.82800655720808
 20
2.713903436065731
 30
0.0
 11
2.82800655720808
 21
2.715083721348108
 31
0.0
  0
LINE
  5
1149
330
1F
100
AcDbEntity
  8
0
  6
HIDDEN
 62
     7
370
     0
100
AcDbLine
 10
2.158006557208075
 20
3.335535288881949
 30
0.0
 11
2.158006557208075
 21
3.27553528888195
 31
0.0
  0
LINE
  5
114A
330
1F
100
AcDbEntity
  8
0
  6
HIDDEN
 62
     7
370
     0
100
AcDbLine
 10
2.82800655720808
 20
3.27553528888195
 30
0.0
 11
2.82800655720808
 21
3.335535288881949
 31
0.0
  0
LINE
  5
114B
330
1F
100
AcDbEntity
  8
0
100
AcDbLine
 10
11.68735162601112
 20
8.113751118689112
 30
0.0
 11
11.68735162601112
 21
8.064758669975965
 31
0.0
  0
LINE
  5
114C
330
1F
100
AcDbEntity
  8
0
100
AcDbLine
 10
12.56735162601112
 20
8.064758669975965
 30
0.0
 11
12.56735162601112
 21
8.113751118689112
 31
0.0
  0
LINE
  5
114D
330
1F
100
AcDbEntity
  8
0
100
AcDbLine
 10
12.24518222219609
 20
9.835958045331199
 30
0.0
 11
11.11510330923429
 21
9.183577375191369
 31
0.0
  0
LINE
  5
114E
330
1F
100
AcDbEntity
  8
0
100
AcDbLine
 10
12.93055531472555
 20
9.440709225988744
 30
0.0
 11
12.24596948030871
 21
9.835912216065416
 31
0.0
  0
LINE
  5
114F
330
1F
100
AcDbEntity
  8
0
100
AcDbLine
 10
12.45985162601112
 20
8.722537026876427
 30
0.0
 11
12.45985162601112
 21
8.729776428330417
 31
0.0
  0
LINE
  5
1150
330
1F
100
AcDbEntity
  8
0
100
AcDbLine
 10
12.45985162601112
 20
8.698040802519855
 30
0.0
 11
12.45985162601112
 21
8.705280203973842
 31
0.0
  0
LINE
  5
1151
330
1F
100
AcDbEntity
  8
0
100
AcDbLine
 10
12.45985162601112
 20
8.673544578163284
 30
0.0
 11
12.45985162601112
 21
8.680783979617274
 31
0.0
  0
LINE
  5
1152
330
1F
100
AcDbEntity
  8
0
100
AcDbLine
 10
12.45985162601112
 20
8.649048353806708
 30
0.0
 11
12.45985162601112
 21
8.656287755260699
 31
0.0
  0
LINE
  5
1153
330
1F
100
AcDbEntity
  8
0
100
AcDbLine
 10
11.79485162601112
 20
8.631791530904127
 30
0.0
 11
11.79485162601112
 21
8.62455212945014
 31
0.0
  0
LINE
  5
1154
330
1F
100
AcDbEntity
  8
0
100
AcDbLine
 10
12.45985162601112
 20
8.62455212945014
 30
0.0
 11
12.45985162601112
 21
8.631791530904127
 31
0.0
  0
LINE
  5
1155
330
1F
100
AcDbEntity
  8
0
100
AcDbLine
 10
11.79485162601112
 20
8.607295306547555
 30
0.0
 11
11.79485162601112
 21
8.600055905093565
 31
0.0
  0
LINE
  5
1156
330
1F
100
AcDbEntity
  8
0
100
AcDbLine
 10
12.45985162601112
 20
8.600055905093565
 30
0.0
 11
12.45985162601112
 21
8.607295306547555
 31
0.0
  0
LINE
  5
1157
330
1F
100
AcDbEntity
  8
0
100
AcDbLine
 10
11.79485162601112
 20
8.58279908219098
 30
0.0
 11
11.79485162601112
 21
8.575559680736997
 31
0.0
  0
LINE
  5
1158
330
1F
100
AcDbEntity
  8
0
100
AcDbLine
 10
12.45985162601112
 20
8.575559680736997
 30
0.0
 11
12.45985162601112
 21
8.58279908219098
 31
0.0
  0
LINE
  5
1159
330
1F
100
AcDbEntity
  8
0
100
AcDbLine
 10
11.79485162601112
 20
8.558302857834409
 30
0.0
 11
11.79485162601112
 21
8.551063456380422
 31
0.0
  0
LINE
  5
115A
330
1F
100
AcDbEntity
  8
0
100
AcDbLine
 10
12.45985162601112
 20
8.551063456380422
 30
0.0
 11
12.45985162601112
 21
8.558302857834409
 31
0.0
  0
LINE
  5
115B
330
1F
100
AcDbEntity
  8
0
100
AcDbLine
 10
11.79485162601112
 20
8.533806633477837
 30
0.0
 11
11.79485162601112
 21
8.522021524631984
 31
0.0
  0
LINE
  5
115C
330
1F
100
AcDbEntity
  8
0
100
AcDbLine
 10
12.45985162601112
 20
8.522021524631984
 30
0.0
 11
12.45985162601112
 21
8.533806633477837
 31
0.0
  0
ARC
  5
115D
330
1F
100
AcDbEntity
  8
0
100
AcDbCircle
 10
11.9318069415516
 20
7.49358325751945
 30
0.0
 40
0.0432870862830356
100
AcDbArc
 50
88.85590325415476
 51
118.040239115382
  0
LINE
  5
115E
330
1F
100
AcDbEntity
  8
0
100
AcDbLine
 10
11.93267125169577
 20
7.536861714132985
 30
0.0
 11
12.32203200032648
 21
7.536861714132985
 31
0.0
  0
ARC
  5
115F
330
1F
100
AcDbEntity
  8
0
100
AcDbCircle
 10
12.32289631047062
 20
7.493583257519347
 30
0.0
 40
0.0432870862831399
100
AcDbArc
 50
61.95976088464878
 51
91.1440967458143
  0
LINE
  5
1160
330
1F
100
AcDbEntity
  8
0
100
AcDbLine
 10
12.34324520376208
 20
7.531789204447761
 30
0.0
 11
12.61856482944672
 21
7.372850567644022
 31
0.0
  0
ARC
  5
1161
330
1F
100
AcDbEntity
  8
0
100
AcDbCircle
 10
12.6123379141364
 20
7.359107254659697
 30
0.0
 40
0.0150881783548286
100
AcDbArc
 50
5.694799251243067
 51
65.62534170638618
  0
LINE
  5
1162
330
1F
100
AcDbEntity
  8
0
100
AcDbLine
 10
12.62735162601113
 20
7.360604445966686
 30
0.0
 11
12.62735162601112
 21
7.135831270213746
 31
0.0
  0
ARC
  5
1163
330
1F
100
AcDbEntity
  8
0
100
AcDbCircle
 10
12.61233791413642
 20
7.137328461520702
 30
0.0
 40
0.0150881783547936
100
AcDbArc
 50
294.3746582935608
 51
354.3052007488665
  0
LINE
  5
1164
330
1F
100
AcDbEntity
  8
0
100
AcDbLine
 10
12.61856482944672
 20
7.123585148536406
 30
0.0
 11
12.34324520376208
 21
6.964646511732667
 31
0.0
  0
ARC
  5
1165
330
1F
100
AcDbEntity
  8
0
100
AcDbCircle
 10
12.32289631047064
 20
7.002852458660989
 30
0.0
 40
0.0432870862830467
100
AcDbArc
 50
268.8559032541558
 51
298.0402391153804
  0
LINE
  5
1166
330
1F
100
AcDbEntity
  8
0
100
AcDbLine
 10
12.32203200032648
 20
6.959574002047443
 30
0.0
 11
11.93267125169577
 21
6.959574002047443
 31
0.0
  0
ARC
  5
1167
330
1F
100
AcDbEntity
  8
0
100
AcDbCircle
 10
11.93180694155163
 20
7.00285245866107
 30
0.0
 40
0.0432870862831288
100
AcDbArc
 50
241.9597608846471
 51
271.1440967458154
  0
LINE
  5
1168
330
1F
100
AcDbEntity
  8
0
100
AcDbLine
 10
11.91145804826017
 20
6.964646511732667
 30
0.0
 11
11.63613842257553
 21
7.123585148536406
 31
0.0
  0
ARC
  5
1169
330
1F
100
AcDbEntity
  8
0
100
AcDbCircle
 10
11.64236533788582
 20
7.137328461520709
 30
0.0
 40
0.0150881783547975
100
AcDbArc
 50
185.6947992511472
 51
245.6253417064397
  0
LINE
  5
116A
330
1F
100
AcDbEntity
  8
0
100
AcDbLine
 10
11.62735162601112
 20
7.135831270213749
 30
0.0
 11
11.62735162601112
 21
7.360604445966686
 31
0.0
  0
ARC
  5
116B
330
1F
100
AcDbEntity
  8
0
100
AcDbCircle
 10
11.64236533788582
 20
7.359107254659722
 30
0.0
 40
0.015088178354791
100
AcDbArc
 50
114.3746582935422
 51
174.3052007488375
  0
LINE
  5
116C
330
1F
100
AcDbEntity
  8
0
100
AcDbLine
 10
11.63613842257553
 20
7.372850567644022
 30
0.0
 11
11.91145804826017
 21
7.531789204447761
 31
0.0
  0
LWPOLYLINE
  5
116D
330
1F
100
AcDbEntity
  8
0
100
AcDbPolyline
 90
       75
 70
   128
 43
0.0
 10
12.36423239770861
 20
7.384966216820519
 10
12.3834679248488
 20
7.37287650830877
 10
12.40085812818697
 20
7.359888631365652
 10
12.41627771090957
 20
7.346096163942153
 10
12.42961557456975
 20
7.331598481082114
 10
12.4407756195542
 20
7.316500038922754
 10
12.44967743748309
 20
7.300909622085814
 10
12.45625689055424
 20
7.284939559881859
 10
12.46046657365751
 20
7.268704916975021
 10
12.46227615592967
 20
7.252322664339455
 10
12.461672599289
 20
7.235910836480801
 10
12.45866025237491
 20
7.219587680994862
 10
12.45326081921594
 20
7.203470806590949
 10
12.44551320285175
 20
7.187676335718464
 10
12.43547322503577
 20
7.172318067901979
 10
12.42321322403822
 20
7.157506659813034
 10
12.40882153344723
 20
7.143348827986322
 10
12.3924018457233
 20
7.129946579924578
 10
12.37407246509273
 20
7.117396479132192
 10
12.35396545516298
 20
7.105788949372968
 10
12.33222568740135
 20
7.0952076231648
 10
12.30900979733272
 20
7.085728739205496
 10
12.28448505597704
 20
7.077420593071181
 10
12.25882816465775
 20
7.07034304514514
 10
12.23222398186473
 20
7.06454708932236
 10
12.20486419134464
 20
7.060074485597358
 10
12.17694592101512
 20
7.056957459182463
 10
12.14867032265365
 20
7.055218468324419
 10
12.12024112259436
 20
7.054870042492208
 10
12.09186315387511
 20
7.055914692101939
 10
12.06374088041083
 20
7.058344890429232
 10
12.03607692382623
 20
7.062143127839448
 10
12.00907060356244
 20
7.067282037945016
 10
11.98291650077578
 20
7.073724594780863
 10
11.95780305637617
 20
7.081424379577359
 10
11.93391121330598
 20
7.090325915208605
 10
11.911413112842
 20
7.100365065906395
 10
11.89047085431363
 20
7.111469499359913
 10
11.87123532717344
 20
7.123559207871661
 10
11.85384512383528
 20
7.136547084814782
 10
11.83842554111268
 20
7.150339552238278
 10
11.82508767745249
 20
7.164837235098321
 10
11.81392763246804
 20
7.179935677257677
 10
11.80502581453916
 20
7.195526094094613
 10
11.79844636146801
 20
7.211496156298572
 10
11.79423667836474
 20
7.22773079920541
 10
11.79242709609257
 20
7.244113051840976
 10
11.79303065273325
 20
7.260524879699627
 10
11.79604299964734
 20
7.276848035185572
 10
11.8014424328063
 20
7.292964909589482
 10
11.80919004917049
 20
7.308759380461964
 10
11.81923002698648
 20
7.324117648278456
 10
11.83149002798403
 20
7.338929056367398
 10
11.84588171857501
 20
7.353086888194109
 10
11.86230140629895
 20
7.366489136255857
 10
11.88063078692952
 20
7.379039237048235
 10
11.90073779685927
 20
7.390646766807464
 10
11.9224775646209
 20
7.401228093015628
 10
11.94569345468952
 20
7.410706976974935
 10
11.97021819604521
 20
7.41901512310925
 10
11.9958750873645
 20
7.426092671035291
 10
12.02247927015752
 20
7.431888626858071
 10
12.04983906067761
 20
7.436361230583074
 10
12.07775733100713
 20
7.439478256997968
 10
12.1060329293686
 20
7.441217247856009
 10
12.13446212942789
 20
7.44156567368822
 10
12.16284009814713
 20
7.440521024078492
 10
12.19096237161142
 20
7.438090825751199
 10
12.21862632819601
 20
7.43429258834098
 10
12.24563264845982
 20
7.429153678235415
 10
12.27178675124647
 20
7.422711121399565
 10
12.29690019564608
 20
7.415011336603072
 10
12.32079203871627
 20
7.406109800971822
 10
12.34329013918025
 20
7.396070650274033
 10
12.36423239770861
 20
7.384966216820519
  0
LINE
  5
116E
330
1F
100
AcDbEntity
  8
0
100
AcDbLine
 10
11.93267125169577
 20
6.959574002047443
 30
0.0
 11
11.93267125169577
 21
6.80443124778915
 31
0.0
  0
LINE
  5
116F
330
1F
100
AcDbEntity
  8
0
100
AcDbLine
 10
12.32203200032648
 20
6.80443124778915
 30
0.0
 11
12.32203200032648
 21
6.959574002047443
 31
0.0
  0
LINE
  5
1170
330
1F
100
AcDbEntity
  8
0
100
AcDbLine
 10
12.32203200032648
 20
6.80443124778915
 30
0.0
 11
11.93267125169577
 21
6.80443124778915
 31
0.0
  0
LINE
  5
1171
330
1F
100
AcDbEntity
  8
0
100
AcDbLine
 10
12.34324520376208
 20
6.964646511732667
 30
0.0
 11
12.34324520376208
 21
6.809503757474374
 31
0.0
  0
ARC
  5
1172
330
1F
100
AcDbEntity
  8
0
100
AcDbCircle
 10
12.32289631047062
 20
6.847709704402738
 30
0.0
 40
0.0432870862830926
100
AcDbArc
 50
268.8559032541805
 51
298.0402391153745
  0
LINE
  5
1173
330
1F
100
AcDbEntity
  8
0
100
AcDbLine
 10
11.91145804826017
 20
6.809503757474377
 30
0.0
 11
11.91145804826017
 21
6.964646511732667
 31
0.0
  0
ARC
  5
1174
330
1F
100
AcDbEntity
  8
0
100
AcDbCircle
 10
11.93180694155161
 20
6.847709704402685
 30
0.0
 40
0.0432870862830375
100
AcDbArc
 50
241.9597608846042
 51
271.1440967458366
  0
ARC
  5
1175
330
1F
100
AcDbEntity
  8
0
100
AcDbCircle
 10
12.29097749355711
 20
7.19945000227559
 30
0.0
 40
0.1740661326653712
100
AcDbArc
 50
11.58636146698648
 51
65.1120371915644
  0
LWPOLYLINE
  5
1176
330
1F
100
AcDbEntity
  8
0
100
AcDbPolyline
 90
       28
 70
   128
 43
0.0
 10
11.79320655643398
 20
7.234410269433329
 10
11.79604299964734
 20
7.2492328578723
 10
11.8014424328063
 20
7.265349732276213
 10
11.80919004917049
 20
7.281144203148695
 10
11.81923002698648
 20
7.296502470965183
 10
11.83149002798403
 20
7.311313879054125
 10
11.84588171857501
 20
7.32547171088084
 10
11.86230140629895
 20
7.338873958942585
 10
11.88063078692952
 20
7.351424059734966
 10
11.90073779685927
 20
7.363031589494195
 10
11.9224775646209
 20
7.373612915702359
 10
11.94569345468952
 20
7.383091799661666
 10
11.97021819604521
 20
7.391399945795981
 10
11.9958750873645
 20
7.398477493722019
 10
12.02247927015752
 20
7.404273449544803
 10
12.04983906067761
 20
7.408746053269801
 10
12.07775733100713
 20
7.411863079684696
 10
12.1060329293686
 20
7.41360207054274
 10
12.13446212942789
 20
7.413950496374948
 10
12.16284009814713
 20
7.41290584676522
 10
12.19096237161142
 20
7.41047564843793
 10
12.21862632819601
 20
7.406677411027711
 10
12.24563264845982
 20
7.401538500922143
 10
12.27178675124647
 20
7.395095944086296
 10
12.29690019564608
 20
7.387396159289799
 10
12.32079203871627
 20
7.378494623658554
 10
12.34329013918025
 20
7.368455472960761
 10
12.36423239770861
 20
7.357351039507246
  0
LINE
  5
1177
330
1F
100
AcDbEntity
  8
0
100
AcDbLine
 10
12.61856482944672
 20
6.968442394278113
 30
0.0
 11
12.61856482944672
 21
7.123585148536406
 31
0.0
  0
LINE
  5
1178
330
1F
100
AcDbEntity
  8
0
100
AcDbLine
 10
12.61856482944672
 20
6.968442394278113
 30
0.0
 11
12.34324520376208
 21
6.809503757474374
 31
0.0
  0
LINE
  5
1179
330
1F
100
AcDbEntity
  8
0
100
AcDbLine
 10
11.63613842257553
 20
7.123585148536406
 30
0.0
 11
11.63613842257553
 21
6.968442394278113
 31
0.0
  0
LINE
  5
117A
330
1F
100
AcDbEntity
  8
0
100
AcDbLine
 10
11.91145804826017
 20
6.809503757474377
 30
0.0
 11
11.63613842257553
 21
6.968442394278113
 31
0.0
  0
ARC
  5
117B
330
1F
100
AcDbEntity
  8
0
100
AcDbCircle
 10
12.28263512766282
 20
7.162275908977576
 30
0.0
 40
0.1854160181785893
100
AcDbArc
 50
18.17820701976726
 51
63.89122477969157
  0
LWPOLYLINE
  5
117C
330
1F
100
AcDbEntity
  8
0
100
AcDbPolyline
 90
       28
 70
   128
 43
0.0
 10
11.79590607460049
 20
7.220120805225501
 10
11.79604299964734
 20
7.2206539294563
 10
11.8014424328063
 20
7.23677080386021
 10
11.80919004917049
 20
7.252565274732692
 10
11.81923002698648
 20
7.26792354254918
 10
11.83149002798403
 20
7.282734950638122
 10
11.84588171857501
 20
7.296892782464837
 10
11.86230140629895
 20
7.310295030526582
 10
11.88063078692952
 20
7.322845131318967
 10
11.90073779685927
 20
7.334452661078191
 10
11.9224775646209
 20
7.345033987286356
 10
11.94569345468952
 20
7.354512871245667
 10
11.97021819604521
 20
7.362821017379978
 10
11.9958750873645
 20
7.369898565306019
 10
12.02247927015752
 20
7.375694521128799
 10
12.04983906067761
 20
7.380167124853798
 10
12.07775733100713
 20
7.383284151268696
 10
12.1060329293686
 20
7.385023142126737
 10
12.13446212942789
 20
7.385371567958948
 10
12.16284009814713
 20
7.384326918349216
 10
12.19096237161142
 20
7.381896720021927
 10
12.21862632819601
 20
7.378098482611708
 10
12.24563264845982
 20
7.37295957250614
 10
12.27178675124647
 20
7.366517015670293
 10
12.29690019564608
 20
7.358817230873796
 10
12.32079203871627
 20
7.349915695242554
 10
12.34329013918025
 20
7.339876544544761
 10
12.36423239770861
 20
7.328772111091247
  0
ARC
  5
117D
330
1F
100
AcDbEntity
  8
0
100
AcDbCircle
 10
12.27776449626746
 20
7.127670208586231
 30
0.0
 40
0.1929789485103353
100
AcDbArc
 50
23.89263981227497
 51
63.38013403465672
  0
LWPOLYLINE
  5
117E
330
1F
100
AcDbEntity
  8
0
100
AcDbPolyline
 90
       27
 70
   128
 43
0.0
 10
11.80049694680576
 20
7.205831341017571
 10
11.8014424328063
 20
7.20819187544421
 10
11.80919004917049
 20
7.223986346316692
 10
11.81923002698648
 20
7.23934461413318
 10
11.83149002798403
 20
7.254156022222122
 10
11.84588171857501
 20
7.268313854048837
 10
11.86230140629895
 20
7.281716102110582
 10
11.88063078692952
 20
7.294266202902964
 10
11.90073779685927
 20
7.305873732662192
 10
11.9224775646209
 20
7.316455058870356
 10
11.94569345468952
 20
7.325933942829664
 10
11.97021819604521
 20
7.334242088963979
 10
11.9958750873645
 20
7.34131963689002
 10
12.02247927015752
 20
7.3471155927128
 10
12.04983906067761
 20
7.351588196437798
 10
12.07775733100713
 20
7.354705222852693
 10
12.1060329293686
 20
7.356444213710737
 10
12.13446212942789
 20
7.356792639542945
 10
12.16284009814713
 20
7.355747989933217
 10
12.19096237161142
 20
7.353317791605928
 10
12.21862632819601
 20
7.349519554195708
 10
12.24563264845982
 20
7.34438064409014
 10
12.27178675124647
 20
7.337938087254293
 10
12.29690019564608
 20
7.330238302457797
 10
12.32079203871627
 20
7.321336766826551
 10
12.34329013918025
 20
7.311297616128758
 10
12.36423239770861
 20
7.300193182675243
  0
ARC
  5
117F
330
1F
100
AcDbEntity
  8
0
100
AcDbCircle
 10
12.29083710770506
 20
7.198320944203583
 30
0.0
 40
0.1742751782777874
100
AcDbArc
 50
11.78954267162061
 51
65.09304111265392
  0
LWPOLYLINE
  5
1180
330
1F
100
AcDbEntity
  8
0
100
AcDbPolyline
 90
       28
 70
   128
 43
0.0
 10
11.79326735390203
 20
7.233928393882461
 10
11.79604299964734
 20
7.248269106769569
 10
11.8014424328063
 20
7.264385981173482
 10
11.80919004917049
 20
7.280180452045964
 10
11.81923002698648
 20
7.295538719862452
 10
11.83149002798403
 20
7.310350127951394
 10
11.84588171857501
 20
7.324507959778109
 10
11.86230140629895
 20
7.337910207839854
 10
11.88063078692952
 20
7.350460308632239
 10
11.90073779685927
 20
7.36206783839146
 10
11.9224775646209
 20
7.372649164599629
 10
11.94569345468952
 20
7.382128048558936
 10
11.97021819604521
 20
7.390436194693247
 10
11.9958750873645
 20
7.397513742619288
 10
12.02247927015752
 20
7.403309698442068
 10
12.04983906067761
 20
7.407782302167071
 10
12.07775733100713
 20
7.410899328581965
 10
12.1060329293686
 20
7.412638319440009
 10
12.13446212942789
 20
7.412986745272217
 10
12.16284009814713
 20
7.411942095662489
 10
12.19096237161142
 20
7.4095118973352
 10
12.21862632819601
 20
7.40571365992498
 10
12.24563264845982
 20
7.400574749819412
 10
12.27178675124647
 20
7.394132192983565
 10
12.29690019564608
 20
7.386432408187069
 10
12.32079203871627
 20
7.377530872555826
 10
12.34329013918025
 20
7.36749172185803
 10
12.36423239770861
 20
7.356387288404516
  0
ARC
  5
1181
330
1F
100
AcDbEntity
  8
0
100
AcDbCircle
 10
12.26556033156378
 20
7.085348897413467
 30
0.0
 40
0.2107865266049407
100
AcDbArc
 50
30.25132556156343
 51
62.08807615007756
  0
LWPOLYLINE
  5
1182
330
1F
100
AcDbEntity
  8
0
100
AcDbPolyline
 90
       26
 70
   128
 43
0.0
 10
11.8070604915282
 20
7.191541876809591
 10
11.80919004917049
 20
7.195407417900689
 10
11.81923002698648
 20
7.210765685717177
 10
11.83149002798403
 20
7.225577093806123
 10
11.84588171857501
 20
7.239734925632834
 10
11.86230140629895
 20
7.253137173694579
 10
11.88063078692952
 20
7.265687274486964
 10
11.90073779685927
 20
7.277294804246189
 10
11.9224775646209
 20
7.287876130454357
 10
11.94569345468952
 20
7.297355014413664
 10
11.97021819604521
 20
7.305663160547975
 10
11.9958750873645
 20
7.312740708474017
 10
12.02247927015752
 20
7.318536664296797
 10
12.04983906067761
 20
7.323009268021795
 10
12.07775733100713
 20
7.326126294436694
 10
12.1060329293686
 20
7.327865285294734
 10
12.13446212942789
 20
7.328213711126945
 10
12.16284009814713
 20
7.327169061517217
 10
12.19096237161142
 20
7.324738863189924
 10
12.21862632819601
 20
7.320940625779705
 10
12.24563264845982
 20
7.31580171567414
 10
12.27178675124647
 20
7.30935915883829
 10
12.29690019564608
 20
7.301659374041793
 10
12.32079203871627
 20
7.292757838410551
 10
12.34329013918025
 20
7.282718687712758
 10
12.36423239770861
 20
7.271614254259244
  0
ARC
  5
1183
330
1F
100
AcDbEntity
  8
0
100
AcDbCircle
 10
12.2824777872751
 20
7.161117324136242
 30
0.0
 40
0.1856602212662699
100
AcDbArc
 50
18.37337703695881
 51
63.87408371033377
  0
LWPOLYLINE
  5
1184
330
1F
100
AcDbEntity
  8
0
100
AcDbPolyline
 90
       28
 70
   128
 43
0.0
 10
11.79602972289764
 20
7.219638929674179
 10
11.79604299964734
 20
7.21969017835357
 10
11.8014424328063
 20
7.235807052757479
 10
11.80919004917049
 20
7.251601523629965
 10
11.81923002698648
 20
7.266959791446453
 10
11.83149002798403
 20
7.281771199535395
 10
11.84588171857501
 20
7.295929031362106
 10
11.86230140629895
 20
7.309331279423854
 10
11.88063078692952
 20
7.321881380216236
 10
11.90073779685927
 20
7.333488909975461
 10
11.9224775646209
 20
7.344070236183625
 10
11.94569345468952
 20
7.353549120142936
 10
11.97021819604521
 20
7.361857266277247
 10
11.9958750873645
 20
7.368934814203289
 10
12.02247927015752
 20
7.374730770026069
 10
12.04983906067761
 20
7.379203373751071
 10
12.07775733100713
 20
7.382320400165966
 10
12.1060329293686
 20
7.38405939102401
 10
12.13446212942789
 20
7.384407816856217
 10
12.16284009814713
 20
7.383363167246489
 10
12.19096237161142
 20
7.380932968919196
 10
12.21862632819601
 20
7.377134731508977
 10
12.24563264845982
 20
7.371995821403412
 10
12.27178675124647
 20
7.365553264567562
 10
12.29690019564608
 20
7.357853479771069
 10
12.32079203871627
 20
7.348951944139823
 10
12.34329013918025
 20
7.33891279344203
 10
12.36423239770861
 20
7.327808359988516
  0
ARC
  5
1185
330
1F
100
AcDbEntity
  8
0
100
AcDbCircle
 10
12.25760197497533
 20
7.046509898956969
 30
0.0
 40
0.2235895580413179
100
AcDbArc
 50
35.78486297323596
 51
61.51670491493923
  0
LWPOLYLINE
  5
1186
330
1F
100
AcDbEntity
  8
0
100
AcDbPolyline
 90
       25
 70
   128
 43
0.0
 10
11.81572132889665
 20
7.1772524126016
 10
11.81923002698648
 20
7.182186757301177
 10
11.83149002798403
 20
7.19699816539012
 10
11.84588171857501
 20
7.211155997216835
 10
11.86230140629895
 20
7.224558245278579
 10
11.88063078692952
 20
7.237108346070961
 10
11.90073779685927
 20
7.248715875830185
 10
11.9224775646209
 20
7.259297202038354
 10
11.94569345468952
 20
7.268776085997661
 10
11.97021819604521
 20
7.277084232131972
 10
11.9958750873645
 20
7.284161780058013
 10
12.02247927015752
 20
7.289957735880793
 10
12.04983906067761
 20
7.294430339605796
 10
12.07775733100713
 20
7.29754736602069
 10
12.1060329293686
 20
7.299286356878734
 10
12.13446212942789
 20
7.299634782710942
 10
12.16284009814713
 20
7.298590133101214
 10
12.19096237161142
 20
7.296159934773921
 10
12.21862632819601
 20
7.292361697363705
 10
12.24563264845982
 20
7.287222787258137
 10
12.27178675124647
 20
7.280780230422287
 10
12.29690019564608
 20
7.273080445625794
 10
12.32079203871627
 20
7.264178909994548
 10
12.34329013918025
 20
7.254139759296755
 10
12.36423239770861
 20
7.243035325843244
  0
ARC
  5
1187
330
1F
100
AcDbEntity
  8
0
100
AcDbCircle
 10
12.27759275068037
 20
7.126494102548893
 30
0.0
 40
0.1932457563054795
100
AcDbArc
 50
24.08286265218642
 51
63.36282167446898
  0
LWPOLYLINE
  5
1188
330
1F
100
AcDbEntity
  8
0
100
AcDbPolyline
 90
       27
 70
   128
 43
0.0
 10
11.80068557660261
 20
7.205349465466209
 10
11.8014424328063
 20
7.207228124341479
 10
11.80919004917049
 20
7.223022595213961
 10
11.81923002698648
 20
7.23838086303045
 10
11.83149002798403
 20
7.253192271119392
 10
11.84588171857501
 20
7.267350102946107
 10
11.86230140629895
 20
7.280752351007851
 10
11.88063078692952
 20
7.293302451800233
 10
11.90073779685927
 20
7.304909981559458
 10
11.9224775646209
 20
7.315491307767626
 10
11.94569345468952
 20
7.324970191726933
 10
11.97021819604521
 20
7.333278337861244
 10
11.9958750873645
 20
7.340355885787289
 10
12.02247927015752
 20
7.346151841610065
 10
12.04983906067761
 20
7.350624445335068
 10
12.07775733100713
 20
7.353741471749962
 10
12.1060329293686
 20
7.355480462608007
 10
12.13446212942789
 20
7.355828888440214
 10
12.16284009814713
 20
7.354784238830486
 10
12.19096237161142
 20
7.352354040503197
 10
12.21862632819601
 20
7.348555803092978
 10
12.24563264845982
 20
7.343416892987409
 10
12.27178675124647
 20
7.336974336151563
 10
12.29690019564608
 20
7.329274551355066
 10
12.32079203871627
 20
7.32037301572382
 10
12.34329013918025
 20
7.310333865026027
 10
12.36423239770861
 20
7.299229431572513
  0
ARC
  5
1189
330
1F
100
AcDbEntity
  8
0
100
AcDbCircle
 10
12.26537343706783
 20
7.08413314163835
 30
0.0
 40
0.2110967082800495
100
AcDbArc
 50
30.43298378213642
 51
62.07526897764759
  0
LWPOLYLINE
  5
118A
330
1F
100
AcDbEntity
  8
0
100
AcDbPolyline
 90
       26
 70
   128
 43
0.0
 10
11.80731754355902
 20
7.1910600012582
 10
11.80919004917049
 20
7.194443666797962
 10
11.81923002698648
 20
7.20980193461445
 10
11.83149002798403
 20
7.224613342703392
 10
11.84588171857501
 20
7.238771174530103
 10
11.86230140629895
 20
7.252173422591848
 10
11.88063078692952
 20
7.264723523384233
 10
11.90073779685927
 20
7.276331053143458
 10
11.9224775646209
 20
7.286912379351626
 10
11.94569345468952
 20
7.296391263310933
 10
11.97021819604521
 20
7.304699409445245
 10
11.9958750873645
 20
7.311776957371286
 10
12.02247927015752
 20
7.317572913194066
 10
12.04983906067761
 20
7.322045516919068
 10
12.07775733100713
 20
7.325162543333963
 10
12.1060329293686
 20
7.326901534192007
 10
12.13446212942789
 20
7.327249960024214
 10
12.16284009814713
 20
7.326205310414486
 10
12.19096237161142
 20
7.323775112087194
 10
12.21862632819601
 20
7.319976874676974
 10
12.24563264845982
 20
7.31483796457141
 10
12.27178675124647
 20
7.308395407735559
 10
12.29690019564608
 20
7.300695622939063
 10
12.32079203871627
 20
7.29179408730782
 10
12.34329013918025
 20
7.281754936610028
 10
12.36423239770861
 20
7.270650503156513
  0
ARC
  5
118B
330
1F
100
AcDbEntity
  8
0
100
AcDbCircle
 10
12.25739974727071
 20
7.045266463920665
 30
0.0
 40
0.2239318352633229
100
AcDbArc
 50
35.96213426381118
 51
61.50535297692457
  0
LWPOLYLINE
  5
118C
330
1F
100
AcDbEntity
  8
0
100
AcDbPolyline
 90
       25
 70
   128
 43
0.0
 10
11.81605189622147
 20
7.176770537050224
 10
11.81923002698648
 20
7.181223006198447
 10
11.83149002798403
 20
7.196034414287389
 10
11.84588171857501
 20
7.210192246114104
 10
11.86230140629895
 20
7.223594494175848
 10
11.88063078692952
 20
7.23614459496823
 10
11.90073779685927
 20
7.247752124727455
 10
11.9224775646209
 20
7.258333450935623
 10
11.94569345468952
 20
7.26781233489493
 10
11.97021819604521
 20
7.276120481029241
 10
11.9958750873645
 20
7.283198028955286
 10
12.02247927015752
 20
7.288993984778063
 10
12.04983906067761
 20
7.293466588503065
 10
12.07775733100713
 20
7.29658361491796
 10
12.1060329293686
 20
7.298322605776004
 10
12.13446212942789
 20
7.298671031608215
 10
12.16284009814713
 20
7.297626381998483
 10
12.19096237161142
 20
7.295196183671194
 10
12.21862632819601
 20
7.291397946260975
 10
12.24563264845982
 20
7.286259036155406
 10
12.27178675124647
 20
7.27981647931956
 10
12.29690019564608
 20
7.272116694523063
 10
12.32079203871627
 20
7.263215158891817
 10
12.34329013918025
 20
7.253176008194024
 10
12.36423239770861
 20
7.242071574740513
  0
LINE
  5
118D
330
1F
100
AcDbEntity
  8
0
100
AcDbLine
 10
12.62735162601112
 20
7.135831270213746
 30
0.0
 11
12.62735162601112
 21
6.980688515955453
 31
0.0
  0
ARC
  5
118E
330
1F
100
AcDbEntity
  8
0
100
AcDbCircle
 10
12.61233791413642
 20
6.98218570726242
 30
0.0
 40
0.0150881783548019
100
AcDbArc
 50
294.3746582935686
 51
354.3052007488289
  0
LINE
  5
118F
330
1F
100
AcDbEntity
  8
0
100
AcDbLine
 10
11.62735162601112
 20
6.980688515955456
 30
0.0
 11
11.62735162601112
 21
7.135831270213749
 31
0.0
  0
ARC
  5
1190
330
1F
100
AcDbEntity
  8
0
100
AcDbCircle
 10
11.64236533788582
 20
6.98218570726242
 30
0.0
 40
0.0150881783548004
100
AcDbArc
 50
185.6947992511606
 51
245.6253417064453
  0
LWPOLYLINE
  5
1191
330
1F
100
AcDbEntity
  8
0
100
AcDbPolyline
 90
       75
 70
   128
 43
0.0
 10
12.36423239770861
 20
8.250499477419413
 10
12.3834679248488
 20
8.238409768907668
 10
12.40085812818697
 20
8.225421891964543
 10
12.41627771090957
 20
8.211629424541047
 10
12.42961557456975
 20
8.197131741681008
 10
12.4407756195542
 20
8.182033299521648
 10
12.44967743748309
 20
8.166442882684712
 10
12.45625689055424
 20
8.150472820480754
 10
12.46046657365751
 20
8.134238177573916
 10
12.46227615592967
 20
8.117855924938346
 10
12.461672599289
 20
8.101444097079699
 10
12.45866025237491
 20
8.085120941593753
 10
12.45326081921594
 20
8.069004067189844
 10
12.44551320285175
 20
8.053209596317362
 10
12.43547322503577
 20
8.037851328500874
 10
12.42321322403822
 20
8.023039920411928
 10
12.40882153344723
 20
8.008882088585217
 10
12.3924018457233
 20
7.995479840523472
 10
12.37407246509273
 20
7.98292973973109
 10
12.35396545516298
 20
7.971322209971862
 10
12.33222568740135
 20
7.960740883763694
 10
12.30900979733272
 20
7.95126199980439
 10
12.28448505597704
 20
7.942953853670076
 10
12.25882816465775
 20
7.935876305744034
 10
12.23222398186473
 20
7.930080349921254
 10
12.20486419134464
 20
7.925607746196252
 10
12.17694592101512
 20
7.922490719781357
 10
12.14867032265365
 20
7.920751728923317
 10
12.12024112259436
 20
7.920403303091106
 10
12.09186315387511
 20
7.921447952700834
 10
12.06374088041083
 20
7.923878151028127
 10
12.03607692382623
 20
7.927676388438342
 10
12.00907060356244
 20
7.932815298543911
 10
11.98291650077578
 20
7.939257855379761
 10
11.95780305637617
 20
7.946957640176254
 10
11.93391121330598
 20
7.9558591758075
 10
11.911413112842
 20
7.965898326505293
 10
11.89047085431363
 20
7.977002759958807
 10
11.87123532717344
 20
7.989092468470555
 10
11.85384512383528
 20
8.002080345413677
 10
11.83842554111268
 20
8.015872812837173
 10
11.82508767745249
 20
8.030370495697212
 10
11.81392763246804
 20
8.045468937856572
 10
11.80502581453916
 20
8.061059354693512
 10
11.79844636146801
 20
8.077029416897467
 10
11.79423667836474
 20
8.093264059804305
 10
11.79242709609257
 20
8.10964631243987
 10
11.79303065273325
 20
8.126058140298525
 10
11.79604299964734
 20
8.142381295784467
 10
11.8014424328063
 20
8.15849817018838
 10
11.80919004917049
 20
8.174292641060862
 10
11.81923002698648
 20
8.18965090887735
 10
11.83149002798403
 20
8.204462316966292
 10
11.84588171857501
 20
8.218620148793007
 10
11.86230140629895
 20
8.232022396854748
 10
11.88063078692952
 20
8.244572497647133
 10
11.90073779685927
 20
8.256180027406362
 10
11.9224775646209
 20
8.266761353614523
 10
11.94569345468952
 20
8.27624023757383
 10
11.97021819604521
 20
8.284548383708148
 10
11.9958750873645
 20
8.291625931634186
 10
12.02247927015752
 20
8.29742188745697
 10
12.04983906067761
 20
8.301894491181968
 10
12.07775733100713
 20
8.305011517596859
 10
12.1060329293686
 20
8.306750508454907
 10
12.13446212942789
 20
8.307098934287118
 10
12.16284009814713
 20
8.306054284677387
 10
12.19096237161142
 20
8.303624086350094
 10
12.21862632819601
 20
8.299825848939878
 10
12.24563264845982
 20
8.29468693883431
 10
12.27178675124647
 20
8.28824438199846
 10
12.29690019564608
 20
8.280544597201963
 10
12.32079203871627
 20
8.271643061570721
 10
12.34329013918025
 20
8.261603910872928
 10
12.36423239770861
 20
8.250499477419413
  0
LWPOLYLINE
  5
1192
330
1F
100
AcDbEntity
  8
0
100
AcDbPolyline
 90
       71
 70
   128
 43
0.0
 10
12.43847860973321
 20
8.293360903290107
 10
12.46060648999917
 20
8.279605783558142
 10
12.48091424776134
 20
8.264944823160352
 10
12.49929096908898
 20
8.249458095178415
 10
12.51563628670272
 20
8.233230182750212
 10
12.52986092814586
 20
8.216349717106059
 10
12.54188720335951
 20
8.198908893495627
 10
12.55164942899884
 20
8.181002967649494
 10
12.55909428717267
 20
8.162729735525374
 10
12.56418111664732
 20
8.144188999180482
 10
12.56688213492417
 20
8.125482021687339
 10
12.56718258997802
 20
8.106710974069965
 10
12.56508084082756
 20
8.087978377281178
 10
12.56058836649782
 20
8.069386542268706
 10
12.55372970332573
 20
8.051037011188274
 10
12.54454231095115
 20
8.033030002815536
 10
12.53307636772529
 20
8.01546386518591
 10
12.519394496654
 20
7.998434538451693
 10
12.50357142337259
 20
7.982035030890227
 10
12.48569356802032
 20
7.966354910924916
 10
12.46585857324359
 20
7.951479817933599
 10
12.44417477090567
 20
7.937490994515936
 10
12.42076059041559
 20
7.924464842774504
 10
12.39574391190783
 20
7.912472507033019
 10
12.36926136780531
 20
7.901579485270694
 10
12.34145759658054
 20
7.891845271395013
 10
12.31248445279038
 20
7.883323030306613
 10
12.28250017769916
 20
7.876059307531043
 10
12.25166853501972
 20
7.870093775003255
 10
12.22015791649285
 20
7.865459014393241
 10
12.18814042218995
 20
7.862180339156246
 10
12.15579092056215
 20
7.860275656279462
 10
12.12328609336945
 20
7.859755368480275
 10
12.09080347070623
 20
7.86062231739022
 10
12.05852046139342
 20
7.862871768034988
 10
12.02661338403306
 20
7.866491434695202
 10
11.99525650401723
 20
7.871461548006756
 10
11.96462108175089
 20
7.877754962934247
 10
11.93487443728698
 20
7.885337307027707
 10
11.90617903648226
 20
7.894167168153046
 10
11.87869160366518
 20
7.904196320670742
 10
11.85256226566193
 20
7.915369988827563
 10
11.82793373185575
 20
7.927627145922755
 10
11.80494051475785
 20
7.940900847614692
 10
11.7837081953466
 20
7.955118597547674
 10
11.76435273718786
 20
7.970202743301886
 10
11.74697985308219
 20
7.986070900503964
 10
11.73168442769813
 20
8.002636402781899
 10
11.71854999934512
 20
8.019808775106692
 10
11.70764830371617
 20
8.037494227935599
 10
11.69903888209241
 20
8.05559616945808
 10
11.69276875614926
 20
8.074015733146776
 10
11.6888721711403
 20
8.092652317732202
 10
11.68737040886164
 20
8.111404136651991
 10
11.68827167141807
 20
8.130168773973803
 10
11.69157103642604
 20
8.148843743755623
 10
11.69725048389799
 20
8.167327049788458
 10
11.70527899466132
 20
8.185517742664234
 10
11.71561271977429
 20
8.203316471126484
 10
11.72819522001377
 20
8.220626024692442
 10
11.74295777412672
 20
8.237351864582986
 10
11.7598197541618
 20
8.253402640060688
 10
11.77868906583131
 20
8.268690687355832
 10
11.79946265149826
 20
8.283132508455558
 10
11.82202705304143
 20
8.296649227141031
 10
11.84625903152426
 20
8.309167019782002
 10
11.87202624028327
 20
8.32061751853589
 10
11.89918794775953
 20
8.330938184749197
 10
11.92759580612573
 20
8.340072650521989
 10
11.9570946615105
 20
8.34797102656978
 10
11.97375971602904
 20
8.351779608168662
  0
ARC
  5
1193
330
1F
100
AcDbEntity
  8
0
100
AcDbCircle
 10
12.17156471965347
 20
7.815204512369867
 30
0.0
 40
0.5476098601151832
100
AcDbArc
 50
60.82910633046823
 51
78.47832762450271
  0
LWPOLYLINE
  5
1194
330
1F
100
AcDbEntity
  8
0
100
AcDbPolyline
 90
       45
 70
   128
 43
0.0
 10
12.56735162601112
 20
8.064758669975965
 10
12.56718258997802
 20
8.057718525356822
 10
12.56508084082756
 20
8.038985928568035
 10
12.56058836649782
 20
8.020394093555562
 10
12.55372970332573
 20
8.002044562475127
 10
12.54454231095115
 20
7.984037554102389
 10
12.53307636772529
 20
7.966471416472764
 10
12.519394496654
 20
7.94944208973855
 10
12.50357142337259
 20
7.93304258217708
 10
12.48569356802032
 20
7.917362462211769
 10
12.46585857324359
 20
7.902487369220455
 10
12.44417477090567
 20
7.888498545802789
 10
12.42076059041559
 20
7.875472394061358
 10
12.39574391190783
 20
7.863480058319872
 10
12.36926136780531
 20
7.852587036557551
 10
12.34145759658054
 20
7.842852822681869
 10
12.31248445279038
 20
7.834330581593466
 10
12.28250017769916
 20
7.8270668588179
 10
12.25166853501972
 20
7.821101326290111
 10
12.22015791649285
 20
7.816466565680094
 10
12.18814042218995
 20
7.813187890443099
 10
12.15579092056215
 20
7.811283207566315
 10
12.12328609336945
 20
7.810762919767128
 10
12.09080347070623
 20
7.811629868677073
 10
12.05852046139342
 20
7.813879319321841
 10
12.02661338403306
 20
7.817498985982055
 10
11.99525650401723
 20
7.822469099293613
 10
11.96462108175089
 20
7.8287625142211
 10
11.93487443728698
 20
7.836344858314564
 10
11.90617903648226
 20
7.845174719439903
 10
11.87869160366518
 20
7.855203871957598
 10
11.85256226566193
 20
7.866377540114417
 10
11.82793373185575
 20
7.878634697209609
 10
11.80494051475785
 20
7.891908398901545
 10
11.7837081953466
 20
7.90612614883453
 10
11.76435273718786
 20
7.921210294588739
 10
11.74697985308219
 20
7.937078451790817
 10
11.73168442769813
 20
7.953643954068752
 10
11.71854999934512
 20
7.970816326393546
 10
11.70764830371617
 20
7.988501779222453
 10
11.69903888209241
 20
8.006603720744934
 10
11.69276875614926
 20
8.025023284433629
 10
11.6888721711403
 20
8.043659869019059
 10
11.68737040886164
 20
8.062411687938848
 10
11.68735162601112
 20
8.064758669975965
  0
ARC
  5
1195
330
1F
100
AcDbEntity
  8
0
100
AcDbCircle
 10
12.28379582270272
 20
8.036448439427992
 30
0.0
 40
0.1836147610983789
100
AcDbArc
 50
16.71395114372625
 51
64.01903725481462
  0
LWPOLYLINE
  5
1196
330
1F
100
AcDbEntity
  8
0
100
AcDbPolyline
 90
       28
 70
   128
 43
0.0
 10
11.79504993356336
 20
8.089254894332512
 10
11.79604299964734
 20
8.09338884707132
 10
11.8014424328063
 20
8.10950572147523
 10
11.80919004917049
 20
8.125300192347715
 10
11.81923002698648
 20
8.140658460164203
 10
11.83149002798403
 20
8.155469868253145
 10
11.84588171857501
 20
8.16962770007986
 10
11.86230140629895
 20
8.183029948141605
 10
11.88063078692952
 20
8.19558004893399
 10
11.90073779685927
 20
8.207187578693211
 10
11.9224775646209
 20
8.21776890490138
 10
11.94569345468952
 20
8.227247788860687
 10
11.97021819604521
 20
8.235555934994998
 10
11.9958750873645
 20
8.242633482921043
 10
12.02247927015752
 20
8.248429438743819
 10
12.04983906067761
 20
8.252902042468821
 10
12.07775733100713
 20
8.256019068883716
 10
12.1060329293686
 20
8.257758059741757
 10
12.13446212942789
 20
8.258106485573968
 10
12.16284009814713
 20
8.25706183596424
 10
12.19096237161142
 20
8.254631637636951
 10
12.21862632819601
 20
8.250833400226731
 10
12.24563264845982
 20
8.245694490121163
 10
12.27178675124647
 20
8.239251933285316
 10
12.29690019564608
 20
8.23155214848882
 10
12.32079203871627
 20
8.222650612857577
 10
12.34329013918025
 20
8.212611462159784
 10
12.36423239770861
 20
8.20150702870627
  0
LINE
  5
1197
330
1F
100
AcDbEntity
  8
0
100
AcDbLine
 10
11.99055298035397
 20
8.535750417268943
 30
0.0
 11
11.28141538849185
 21
8.945126835228876
 31
0.0
  0
LINE
  5
1198
330
1F
100
AcDbEntity
  8
0
100
AcDbLine
 10
11.28141538849185
 20
8.945126835228876
 30
0.0
 11
11.11959778896839
 21
9.166161335579573
 31
0.0
  0
ELLIPSE
  5
1199
330
1F
100
AcDbEntity
  8
0
100
AcDbEllipse
 10
11.16802440336309
 20
9.137127978987251
 30
0.0
 11
0.053811743801063
 21
-0.0457141338420435
 31
0.0
210
0.0
220
0.0
230
1.0
 40
0.2126436694444469
 41
2.598048277075263
 42
3.80333759793961
  0
ELLIPSE
  5
119A
330
1F
100
AcDbEntity
  8
0
100
AcDbEllipse
 10
12.03771225095708
 20
8.182342812842879
 30
0.0
 11
1.194451284454516
 21
-1.014709838938102
 31
0.0
210
0.0
220
0.0
230
1.0
 40
0.2126436694444075
 41
1.962903321882781
 42
2.598048277075058
  0
ELLIPSE
  5
119B
330
1F
100
AcDbEntity
  8
0
100
AcDbEllipse
 10
11.79224519478237
 20
8.776772986472582
 30
0.0
 11
0.0538117438010701
 21
-0.0457141338420435
 31
0.0
210
0.0
220
0.0
230
1.0
 40
0.2126436694443655
 41
0.7857982686096085
 42
1.962903321882625
  0
LINE
  5
119C
330
1F
100
AcDbEntity
  8
0
100
AcDbLine
 10
11.83715702462465
 20
8.752555614647093
 30
0.0
 11
11.84072551399034
 21
8.747598134348663
 31
0.0
  0
LINE
  5
119D
330
1F
100
AcDbEntity
  8
0
100
AcDbLine
 10
11.84072551399034
 20
8.747598134348663
 30
0.0
 11
11.99055298035397
 21
8.535750417268943
 31
0.0
  0
SPLINE
  5
119E
330
1F
100
AcDbEntity
  8
0
100
AcDbSpline
210
0.0
220
0.0
230
1.0
 70
     8
 71
     3
 72
    38
 73
    34
 74
     0
 42
0.0000000001
 43
0.0000000001
 40
0.0
 40
0.0
 40
0.0
 40
0.0
 40
0.1250000000000008
 40
0.1250000000000008
 40
0.2500000000000015
 40
0.2500000000000015
 40
0.3125000000000019
 40
0.3125000000000019
 40
0.3750000000000023
 40
0.3750000000000023
 40
0.406250000000002
 40
0.406250000000002
 40
0.4375000000000017
 40
0.4375000000000017
 40
0.4687500000000015
 40
0.4687500000000015
 40
0.5000000000000011
 40
0.5000000000000011
 40
0.5312500000000008
 40
0.5312500000000008
 40
0.5625000000000004
 40
0.5625000000000004
 40
0.59375
 40
0.59375
 40
0.6249999999999997
 40
0.6249999999999997
 40
0.6875
 40
0.6875
 40
0.7500000000000005
 40
0.7500000000000005
 40
0.8750000000000001
 40
0.8750000000000001
 40
1.0
 40
1.0
 40
1.0
 40
1.0
 10
12.88723345221634
 20
9.457904872949324
 30
0.0
 10
12.84093299199082
 20
9.468485073753324
 30
0.0
 10
12.79438236866281
 20
9.478030174053088
 30
0.0
 10
12.70081780320016
 20
9.495302413899974
 30
0.0
 10
12.65376744517342
 20
9.503014142465566
 30
0.0
 10
12.58308823096064
 20
9.513621495968713
 30
0.0
 10
12.55950741699586
 20
9.517000009285247
 30
0.0
 10
12.51234001783091
 20
9.523671966662011
 30
0.0
 10
12.48873704034295
 20
9.526949811340507
 30
0.0
 10
12.45355594393842
 20
9.532240017993984
 30
0.0
 10
12.44186315339537
 20
9.534069544743637
 30
0.0
 10
12.41860761745899
 20
9.538062889434737
 30
0.0
 10
12.40701818061639
 20
9.540227643025751
 30
0.0
 10
12.38441442277457
 20
9.545234660395319
 30
0.0
 10
12.37331910332347
 20
9.548089647345239
 30
0.0
 10
12.35235994344499
 20
9.55516715979671
 30
0.0
 10
12.34281059762439
 20
9.559320987131989
 30
0.0
 10
12.32620556295129
 20
9.569319106696898
 30
0.0
 10
12.31959230465339
 20
9.574892069823906
 30
0.0
 10
12.30877308060357
 20
9.586717879009505
 30
0.0
 10
12.30462964103647
 20
9.592842261710163
 30
0.0
 10
12.29773850172197
 20
9.605049319041921
 30
0.0
 10
12.29497028637748
 20
9.611178660586677
 30
0.0
 10
12.29015211398354
 20
9.623403223130228
 30
0.0
 10
12.28811091607663
 20
9.629500554005609
 30
0.0
 10
12.28262976410766
 20
9.647673914502785
 30
0.0
 10
12.27983162386901
 20
9.659542436619013
 30
0.0
 10
12.27489171202112
 20
9.682748533833564
 30
0.0
 10
12.27277900355894
 20
9.694086969071452
 30
0.0
 10
12.26695662184469
 20
9.72728312917787
 30
0.0
 10
12.26374900754294
 20
9.748322307159263
 30
0.0
 10
12.2577306270335
 20
9.788126846577995
 30
0.0
 10
12.2549517286253
 20
9.80689361247067
 30
0.0
 10
12.25225331818376
 20
9.824471101744762
 30
0.0
  0
SPLINE
  5
119F
330
1F
100
AcDbEntity
  8
0
100
AcDbSpline
210
0.0
220
0.0
230
1.0
 70
     8
 71
     3
 72
     8
 73
     4
 74
     0
 42
0.0000000001
 43
0.0000000001
 40
0.0
 40
0.0
 40
0.0
 40
0.0
 40
1.0
 40
1.0
 40
1.0
 40
1.0
 10
12.90337594655238
 20
9.452943636399918
 30
0.0
 10
12.89808857681199
 20
9.45492411857505
 30
0.0
 10
12.89272793282486
 20
9.456649319378829
 30
0.0
 10
12.88723345221634
 20
9.457904872949324
 30
0.0
  0
LINE
  5
11A0
330
1F
100
AcDbEntity
  8
0
100
AcDbLine
 10
11.78066484019383
 20
8.804816310477168
 30
0.0
 11
12.90337594655238
 21
9.452943636399918
 31
0.0
  0
LINE
  5
11A1
330
1F
100
AcDbEntity
  8
0
100
AcDbLine
 10
11.12699529822194
 20
9.182171704822131
 30
0.0
 11
12.24970640458048
 21
9.830299030744882
 31
0.0
  0
SPLINE
  5
11A2
330
1F
100
AcDbEntity
  8
0
100
AcDbSpline
210
0.0
220
0.0
230
1.0
 70
     8
 71
     3
 72
     8
 73
     4
 74
     0
 42
0.0000000001
 43
0.0000000001
 40
0.0
 40
0.0
 40
0.0
 40
0.0
 40
1.0
 40
1.0
 40
1.0
 40
1.0
 10
12.25225331818376
 20
9.824471101744766
 30
0.0
 10
12.2519305238064
 20
9.826573789541434
 30
0.0
 10
12.25098011211106
 20
9.828491883633439
 30
0.0
 10
12.24970640458048
 20
9.830299030744882
 30
0.0
  0
ARC
  5
11A3
330
1F
100
AcDbEntity
  8
0
100
AcDbCircle
 10
12.88977270340774
 20
9.397173307606632
 30
0.0
 40
0.0721110815128838
100
AcDbArc
 50
3.648547285152689
 51
5.475389415271588
  0
LINE
  5
11A4
330
1F
100
AcDbEntity
  8
0
100
AcDbLine
 10
11.83715702462465
 20
8.752555614647093
 30
0.0
 11
12.96173762781125
 21
9.401762178116456
 31
0.0
  0
SPLINE
  5
11A5
330
1F
100
AcDbEntity
  8
0
100
AcDbSpline
210
0.0
220
0.0
230
1.0
 70
     8
 71
     3
 72
    14
 73
    10
 74
     0
 42
0.0000000001
 43
0.0000000001
 40
0.0
 40
0.0
 40
0.0
 40
0.0
 40
0.25
 40
0.25
 40
0.5
 40
0.5
 40
0.75
 40
0.75
 40
1.0
 40
1.0
 40
1.0
 40
1.0
 10
12.96155476193785
 20
9.404054016155754
 30
0.0
 10
12.9604972686903
 20
9.409923744655472
 30
0.0
 10
12.95793775407113
 20
9.415439599961331
 30
0.0
 10
12.9505323755498
 20
9.425656890670904
 30
0.0
 10
12.94579017248092
 20
9.430207868648178
 30
0.0
 10
12.93508594404959
 20
9.438245515528041
 30
0.0
 10
12.92921572132554
 20
9.441678245805903
 30
0.0
 10
12.9166827629528
 20
9.447805328414219
 30
0.0
 10
12.91006594343939
 20
9.45043777427244
 30
0.0
 10
12.90337594655238
 20
9.452943636399918
 30
0.0
  0
LINE
  5
11A6
330
1F
100
AcDbEntity
  8
0
100
AcDbLine
 10
12.96173762781125
 20
9.40394844993408
 30
0.0
 11
12.96173762781125
 21
9.401762178116456
 31
0.0
  0
ARC
  5
11A7
330
1F
100
AcDbEntity
  8
0
100
AcDbCircle
 10
12.89547623593515
 20
9.398583479534352
 30
0.0
 40
0.0664782292239133
100
AcDbArc
 50
355.3710438081501
 51
4.628956191850737
  0
LINE
  5
11A8
330
1F
100
AcDbEntity
  8
0
100
AcDbLine
 10
12.96173762781125
 20
9.394744652756518
 30
0.0
 11
12.96173762781125
 21
9.393218509134623
 31
0.0
  0
LINE
  5
11A9
330
1F
100
AcDbEntity
  8
0
100
AcDbLine
 10
12.96173762781125
 20
9.394744652756518
 30
0.0
 11
11.84072551399034
 21
8.747598134348663
 31
0.0
  0
LINE
  5
11AA
330
1F
100
AcDbEntity
  8
0
100
AcDbLine
 10
12.96173762781125
 20
9.394744652756518
 30
0.0
 11
12.96171471054827
 21
9.393231738988941
 31
0.0
  0
LINE
  5
11AB
330
1F
100
AcDbEntity
  8
0
100
AcDbLine
 10
12.96171471054827
 20
9.393231738988941
 30
0.0
 11
12.95717855683955
 21
9.093771484761671
 31
0.0
  0
LINE
  5
11AC
330
1F
100
AcDbEntity
  8
0
100
AcDbLine
 10
11.99055298035397
 20
8.535750417268943
 30
0.0
 11
12.95717855683955
 21
9.093771484761671
 31
0.0
  0
LWPOLYLINE
  5
11AD
330
1F
100
AcDbEntity
  8
0
100
AcDbPolyline
 90
       19
 70
   128
 43
0.0
 10
12.21285242153194
 20
8.664081153064465
 10
12.22704474681147
 20
8.665731432498304
 10
12.25948419516975
 20
8.670511187433326
 10
12.2912503262431
 20
8.676614725488327
 10
12.32218126710901
 20
8.684010944432429
 10
12.35211940078283
 20
8.692662154829264
 10
12.3809121693978
 20
8.702524272093675
 10
12.40841285160495
 20
8.713547041136692
 10
12.43448131023146
 20
8.725674292453909
 10
12.45898470638761
 20
8.738844228352437
 10
12.48179817638327
 20
8.752989737857749
 10
12.50280546800465
 20
8.768038738695846
 10
12.52189953290895
 20
8.783914544607998
 10
12.53898307211817
 20
8.800536256126342
 10
12.5539690318324
 20
8.817819172819017
 10
12.56678104703601
 20
8.83567522490415
 10
12.57735383063632
 20
8.85401342203329
 10
12.5856335061516
 20
8.872740316957361
 10
12.58849218372136
 20
8.880933371947158
  0
SPLINE
  5
11AE
330
1F
100
AcDbEntity
  8
0
100
AcDbSpline
210
0.0
220
0.0
230
1.0
 70
     8
 71
     3
 72
    10
 73
     6
 74
     0
 42
0.0000000001
 43
0.0000000001
 40
0.0
 40
0.0
 40
0.0
 40
0.0
 40
0.4534062537307628
 40
0.9225020370223143
 40
1.0
 40
1.0
 40
1.0
 40
1.0
 10
12.24970640458048
 20
9.830299030744882
 30
0.0
 10
12.24872168236989
 20
9.831788505062462
 30
0.0
 10
12.24671816292635
 20
9.834818995005537
 30
0.0
 10
12.24574505497373
 20
9.836952641143156
 30
0.0
 10
12.24542646194455
 20
9.835823411184264
 30
0.0
 10
12.24538129071646
 20
9.835663305032035
 30
0.0
  0
LINE
  5
11AF
330
1F
100
AcDbEntity
  8
0
100
AcDbLine
 10
12.88723345221634
 20
9.457904872949324
 30
0.0
 11
12.25225331818376
 21
9.824471101744766
 31
0.0
  0
ARC
  5
11B0
330
1F
100
AcDbEntity
  8
0
100
AcDbCircle
 10
12.13526395941829
 20
9.165581737612701
 30
0.0
 40
0.5119794215091198
100
AcDbArc
 50
277.5288515597105
 51
286.1758609791038
  0
ARC
  5
11B1
330
1F
100
AcDbEntity
  8
0
100
AcDbCircle
 10
12.14705715283084
 20
9.080105546499147
 30
0.0
 40
0.443392215031828
100
AcDbArc
 50
272.4689804605242
 51
301.2948283804595
  0
ARC
  5
11B2
330
1F
100
AcDbEntity
  8
0
100
AcDbCircle
 10
12.15188538451245
 20
9.047950793287881
 30
0.0
 40
0.4188369567706767
100
AcDbArc
 50
270.0541209676124
 51
306.0526242762665
  0
ARC
  5
11B3
330
1F
100
AcDbEntity
  8
0
100
AcDbCircle
 10
12.15277365821499
 20
9.005289849490754
 30
0.0
 40
0.3951823323283079
100
AcDbArc
 50
265.4615515226566
 51
314.4665386661454
  0
LWPOLYLINE
  5
11B4
330
1F
100
AcDbEntity
  8
0
100
AcDbPolyline
 90
       17
 70
   128
 43
0.0
 10
12.10939696594371
 20
8.604357589805172
 10
12.12029418605269
 20
8.604120778494394
 10
12.14851122790259
 20
8.604466604133826
 10
12.17657581433599
 20
8.606192617448154
 10
12.20428573936454
 20
8.609286382471889
 10
12.23144135234343
 20
8.613725608557153
 10
12.25784699645889
 20
8.619478310978273
 10
12.28331241843998
 20
8.626503041382481
 10
12.30765413933779
 20
8.634749186426237
 10
12.33069677649545
 20
8.644157332445548
 10
12.35227430718424
 20
8.65465969353276
 10
12.37223126480107
 20
8.666180599935572
 10
12.39042385900903
 20
8.678637043259357
 10
12.40672101174995
 20
8.69193927454452
 10
12.42100530166488
 20
8.705991450909841
 10
12.43317381011767
 20
8.720692326102597
 10
12.43786333324845
 20
8.727382501902589
  0
LWPOLYLINE
  5
11B5
330
1F
100
AcDbEntity
  8
0
100
AcDbPolyline
 90
       19
 70
   128
 43
0.0
 10
12.08211104936774
 20
8.588605765452875
 10
12.09212799321942
 20
8.58790080930893
 10
12.12029418605269
 20
8.586863955591809
 10
12.14851122790259
 20
8.587209781231244
 10
12.17657581433599
 20
8.588935794545569
 10
12.20428573936454
 20
8.592029559569308
 10
12.23144135234343
 20
8.596468785654572
 10
12.25784699645889
 20
8.602221488075691
 10
12.28331241843998
 20
8.609246218479892
 10
12.30765413933779
 20
8.617492363523652
 10
12.33069677649545
 20
8.626900509542963
 10
12.35227430718424
 20
8.637402870630175
 10
12.37223126480107
 20
8.648923777032987
 10
12.39042385900903
 20
8.661380220356772
 10
12.40672101174995
 20
8.674682451641938
 10
12.42100530166488
 20
8.68873462800726
 10
12.43317381011767
 20
8.703435503200015
 10
12.44313886272608
 20
8.718679157077573
 10
12.4507716195835
 20
8.7342175314221
  0
LWPOLYLINE
  5
11B6
330
1F
100
AcDbEntity
  8
0
100
AcDbPolyline
 90
       20
 70
   128
 43
0.0
 10
12.07124627443179
 20
8.582333664387771
 10
12.09212799321942
 20
8.58066140785494
 10
12.12029418605269
 20
8.579624554137822
 10
12.14851122790259
 20
8.579970379777254
 10
12.17657581433599
 20
8.581696393091579
 10
12.20428573936454
 20
8.584790158115321
 10
12.23144135234343
 20
8.589229384200585
 10
12.25784699645889
 20
8.594982086621701
 10
12.28331241843998
 20
8.602006817025905
 10
12.30765413933779
 20
8.610252962069665
 10
12.33069677649545
 20
8.61966110808898
 10
12.35227430718424
 20
8.630163469176185
 10
12.37223126480107
 20
8.641684375579
 10
12.39042385900903
 20
8.654140818902781
 10
12.40672101174995
 20
8.667443050187952
 10
12.42100530166488
 20
8.68149522655327
 10
12.43317381011767
 20
8.696196101746025
 10
12.44313886272608
 20
8.711439755623583
 10
12.4508286610577
 20
8.727116357310453
 10
12.45413332959456
 20
8.736083971504413
  0
LWPOLYLINE
  5
11B7
330
1F
100
AcDbEntity
  8
0
100
AcDbPolyline
 90
       22
 70
   128
 43
0.0
 10
12.04655232083658
 20
8.56807814841445
 10
12.06421558746755
 20
8.56581664747124
 10
12.09212799321942
 20
8.563404584952358
 10
12.12029418605269
 20
8.562367731235241
 10
12.14851122790259
 20
8.562713556874669
 10
12.17657581433599
 20
8.564439570188998
 10
12.20428573936454
 20
8.567533335212736
 10
12.23144135234343
 20
8.571972561298
 10
12.25784699645889
 20
8.577725263719116
 10
12.28331241843998
 20
8.584749994123324
 10
12.30765413933779
 20
8.59299613916708
 10
12.33069677649545
 20
8.602404285186395
 10
12.35227430718424
 20
8.612906646273604
 10
12.37223126480107
 20
8.624427552676419
 10
12.39042385900903
 20
8.636883996000197
 10
12.40672101174995
 20
8.650186227285367
 10
12.42100530166488
 20
8.664238403650685
 10
12.43317381011767
 20
8.67893927884344
 10
12.44313886272608
 20
8.694182932720998
 10
12.4508286610577
 20
8.709859534407868
 10
12.45618779993935
 20
8.725856133629662
 10
12.45875741023689
 20
8.738713102948921
  0
LWPOLYLINE
  5
11B8
330
1F
100
AcDbEntity
  8
0
100
AcDbPolyline
 90
       24
 70
   128
 43
0.0
 10
12.03665426123219
 20
8.562364120231347
 10
12.03675807832015
 20
8.562347138372164
 10
12.06421558746755
 20
8.558577246017247
 10
12.09212799321942
 20
8.556165183498372
 10
12.12029418605269
 20
8.555128329781251
 10
12.14851122790259
 20
8.555474155420679
 10
12.17657581433599
 20
8.557200168735004
 10
12.20428573936454
 20
8.560293933758746
 10
12.23144135234343
 20
8.56473315984401
 10
12.25784699645889
 20
8.570485862265126
 10
12.28331241843998
 20
8.57751059266933
 10
12.30765413933779
 20
8.585756737713094
 10
12.33069677649545
 20
8.595164883732405
 10
12.35227430718424
 20
8.605667244819617
 10
12.37223126480107
 20
8.617188151222428
 10
12.39042385900903
 20
8.62964459454621
 10
12.40672101174995
 20
8.642946825831376
 10
12.42100530166488
 20
8.656999002196695
 10
12.43317381011767
 20
8.671699877389453
 10
12.44313886272608
 20
8.686943531267012
 10
12.4508286610577
 20
8.702620132953878
 10
12.45618779993935
 20
8.718616732175672
 10
12.45917766665259
 20
8.734818073068435
 10
12.45957356093753
 20
8.739184771524545
  0
LINE
  5
11B9
330
1F
100
AcDbEntity
  8
0
100
AcDbLine
 10
12.96173762781125
 20
9.393218509134623
 30
0.0
 11
12.96171471054827
 21
9.393231738988941
 31
0.0
  0
LINE
  5
11BA
330
1F
100
AcDbEntity
  8
0
100
AcDbLine
 10
12.96155476193785
 20
9.404054016155754
 30
0.0
 11
12.96173762781125
 21
9.40394844993408
 31
0.0
  0
LWPOLYLINE
  5
11BB
330
1F
100
AcDbEntity
  8
0
100
AcDbPolyline
 90
       25
 70
   128
 43
0.0
 10
12.0140514211305
 20
8.54931577838241
 10
12.03675807832015
 20
8.545090315469579
 10
12.06421558746755
 20
8.541320423114665
 10
12.09212799321942
 20
8.538908360595787
 10
12.12029418605269
 20
8.537871506878666
 10
12.14851122790259
 20
8.538217332518101
 10
12.17657581433599
 20
8.539943345832426
 10
12.20428573936454
 20
8.543037110856161
 10
12.23144135234343
 20
8.547476336941429
 10
12.25784699645889
 20
8.553229039362541
 10
12.28331241843998
 20
8.560253769766749
 10
12.30765413933779
 20
8.568499914810509
 10
12.33069677649545
 20
8.57790806082982
 10
12.35227430718424
 20
8.588410421917032
 10
12.37223126480107
 20
8.599931328319843
 10
12.39042385900903
 20
8.612387771643629
 10
12.40672101174995
 20
8.625690002928791
 10
12.42100530166488
 20
8.639742179294113
 10
12.43317381011767
 20
8.654443054486868
 10
12.44313886272608
 20
8.66968670836443
 10
12.4508286610577
 20
8.685363310051297
 10
12.45618779993935
 20
8.701359909273087
 10
12.45917766665259
 20
8.717561250165854
 10
12.45977671913923
 20
8.733850601697202
 10
12.45951552100734
 20
8.738404839781992
  0
ARC
  5
11BC
330
1F
100
AcDbEntity
  8
0
100
AcDbCircle
 10
12.07370980209413
 20
8.904646299341628
 30
0.0
 40
0.3659948428488172
100
AcDbArc
 50
240.2755112106555
 51
249.4251216514229
  0
LWPOLYLINE
  5
11BD
330
1F
100
AcDbEntity
  8
0
100
AcDbPolyline
 90
       25
 70
   128
 43
0.0
 10
12.00495812308854
 20
8.54406632916045
 10
12.00995329775982
 20
8.542951474045743
 10
12.03675807832015
 20
8.537850914015592
 10
12.06421558746755
 20
8.534081021660675
 10
12.09212799321942
 20
8.531668959141796
 10
12.12029418605269
 20
8.530632105424675
 10
12.14851122790259
 20
8.530977931064111
 10
12.17657581433599
 20
8.532703944378436
 10
12.20428573936454
 20
8.535797709402178
 10
12.23144135234343
 20
8.540236935487438
 10
12.25784699645889
 20
8.545989637908558
 10
12.28331241843998
 20
8.553014368312762
 10
12.30765413933779
 20
8.561260513356518
 10
12.33069677649545
 20
8.570668659375829
 10
12.35227430718424
 20
8.581171020463042
 10
12.37223126480107
 20
8.592691926865853
 10
12.39042385900903
 20
8.605148370189638
 10
12.40672101174995
 20
8.618450601474805
 10
12.42100530166488
 20
8.632502777840127
 10
12.43317381011767
 20
8.647203653032882
 10
12.44313886272608
 20
8.66244730691044
 10
12.4508286610577
 20
8.67812390859731
 10
12.45618779993935
 20
8.6941205078191
 10
12.45917766665259
 20
8.710321848711863
 10
12.45985162601112
 20
8.722537026876427
  0
ARC
  5
11BE
330
1F
100
AcDbEntity
  8
0
100
AcDbCircle
 10
12.02222218076087
 20
8.815457459434743
 30
0.0
 40
0.2630128556004822
100
AcDbArc
 50
228.8808633762733
 51
240.3823356555656
  0
LWPOLYLINE
  5
11BF
330
1F
100
AcDbEntity
  8
0
100
AcDbPolyline
 90
       30
 70
   128
 43
0.0
 10
11.89223862126659
 20
8.569552355383319
 10
11.91302459428356
 20
8.558530790836176
 10
11.93535479847542
 20
8.54856655917344
 10
11.95906834420927
 20
8.53973145291258
 10
11.9839943748447
 20
8.532089129196652
 10
12.00995329775982
 20
8.525694651143165
 10
12.03675807832015
 20
8.520594091113011
 10
12.06421558746755
 20
8.51682419875809
 10
12.09212799321942
 20
8.514412136239212
 10
12.12029418605269
 20
8.51337528252209
 10
12.14851122790259
 20
8.513721108161526
 10
12.17657581433599
 20
8.515447121475851
 10
12.20428573936454
 20
8.518540886499589
 10
12.23144135234343
 20
8.522980112584853
 10
12.25784699645889
 20
8.528732815005973
 10
12.28331241843998
 20
8.535757545410174
 10
12.30765413933779
 20
8.544003690453934
 10
12.33069677649545
 20
8.553411836473248
 10
12.35227430718424
 20
8.563914197560457
 10
12.37223126480107
 20
8.575435103963268
 10
12.39042385900903
 20
8.587891547287053
 10
12.40672101174995
 20
8.60119377857222
 10
12.42100530166488
 20
8.615245954937542
 10
12.43317381011767
 20
8.629946830130297
 10
12.44313886272608
 20
8.645190484007855
 10
12.4508286610577
 20
8.660867085694722
 10
12.45618779993935
 20
8.676863684916515
 10
12.45917766665259
 20
8.693065025809278
 10
12.45977671913923
 20
8.709354377340627
 10
12.4595155210074
 20
8.713908615424692
  0
ARC
  5
11C0
330
1F
100
AcDbEntity
  8
0
100
AcDbCircle
 10
12.00013389026139
 20
8.766855788744869
 30
0.0
 40
0.2248778199105339
100
AcDbArc
 50
215.6929248564624
 51
241.3279815319749
  0
LWPOLYLINE
  5
11C1
330
1F
100
AcDbEntity
  8
0
100
AcDbPolyline
 90
       29
 70
   128
 43
0.0
 10
11.89223862126659
 20
8.562312953929328
 10
11.91302459428356
 20
8.551291389382186
 10
11.93535479847542
 20
8.54132715771945
 10
11.95906834420927
 20
8.532492051458589
 10
11.9839943748447
 20
8.524849727742662
 10
12.00995329775982
 20
8.518455249689171
 10
12.03675807832015
 20
8.513354689659021
 10
12.06421558746755
 20
8.5095847973041
 10
12.09212799321942
 20
8.507172734785221
 10
12.12029418605269
 20
8.506135881068107
 10
12.14851122790259
 20
8.506481706707536
 10
12.17657581433599
 20
8.508207720021861
 10
12.20428573936454
 20
8.511301485045603
 10
12.23144135234343
 20
8.515740711130867
 10
12.25784699645889
 20
8.521493413551983
 10
12.28331241843998
 20
8.528518143956187
 10
12.30765413933779
 20
8.536764288999947
 10
12.33069677649545
 20
8.546172435019261
 10
12.35227430718424
 20
8.556674796106467
 10
12.37223126480107
 20
8.568195702509285
 10
12.39042385900903
 20
8.580652145833063
 10
12.40672101174995
 20
8.593954377118233
 10
12.42100530166488
 20
8.608006553483551
 10
12.43317381011767
 20
8.622707428676307
 10
12.44313886272608
 20
8.637951082553865
 10
12.4508286610577
 20
8.653627684240735
 10
12.45618779993935
 20
8.669624283462528
 10
12.45917766665259
 20
8.685825624355288
 10
12.45985162601112
 20
8.698040802519855
  0
ARC
  5
11C2
330
1F
100
AcDbEntity
  8
0
100
AcDbCircle
 10
11.99101905506124
 20
8.748327204411324
 30
0.0
 40
0.210615468290048
100
AcDbArc
 50
211.073730040687
 51
242.0300480524046
  0
LWPOLYLINE
  5
11C3
330
1F
100
AcDbEntity
  8
0
100
AcDbPolyline
 90
       30
 70
   128
 43
0.0
 10
11.89223862126659
 20
8.54505613102675
 10
11.91302459428356
 20
8.534034566479601
 10
11.93535479847542
 20
8.524070334816865
 10
11.95906834420927
 20
8.515235228556004
 10
11.9839943748447
 20
8.50759290484008
 10
12.00995329775982
 20
8.50119842678659
 10
12.03675807832015
 20
8.496097866756436
 10
12.06421558746755
 20
8.492327974401515
 10
12.09212799321942
 20
8.48991591188264
 10
12.12029418605269
 20
8.488879058165522
 10
12.14851122790259
 20
8.489224883804954
 10
12.17657581433599
 20
8.490950897119279
 10
12.20428573936454
 20
8.494044662143021
 10
12.23144135234343
 20
8.498483888228282
 10
12.25784699645889
 20
8.504236590649398
 10
12.28331241843998
 20
8.511261321053606
 10
12.30765413933779
 20
8.519507466097365
 10
12.33069677649545
 20
8.528915612116676
 10
12.35227430718424
 20
8.539417973203885
 10
12.37223126480107
 20
8.5509388796067
 10
12.39042385900903
 20
8.563395322930485
 10
12.40672101174995
 20
8.576697554215648
 10
12.42100530166488
 20
8.590749730580967
 10
12.43317381011767
 20
8.605450605773722
 10
12.44313886272608
 20
8.620694259651287
 10
12.4508286610577
 20
8.63637086133815
 10
12.45618779993935
 20
8.652367460559943
 10
12.45917766665259
 20
8.668568801452703
 10
12.45977671913923
 20
8.684858152984055
 10
12.45951552100716
 20
8.689412391071222
  0
ARC
  5
11C4
330
1F
100
AcDbEntity
  8
0
100
AcDbCircle
 10
11.97571393103104
 20
8.713388243642487
 30
0.0
 40
0.1878931278092622
100
AcDbArc
 50
201.1987309312893
 51
243.6233467989243
  0
LWPOLYLINE
  5
11C5
330
1F
100
AcDbEntity
  8
0
100
AcDbPolyline
 90
       29
 70
   128
 43
0.0
 10
11.89223862126659
 20
8.53781672957276
 10
11.91302459428356
 20
8.52679516502561
 10
11.93535479847542
 20
8.516830933362882
 10
11.95906834420927
 20
8.507995827102014
 10
11.9839943748447
 20
8.500353503386094
 10
12.00995329775982
 20
8.4939590253326
 10
12.03675807832015
 20
8.488858465302445
 10
12.06421558746755
 20
8.485088572947532
 10
12.09212799321942
 20
8.482676510428653
 10
12.12029418605269
 20
8.481639656711532
 10
12.14851122790259
 20
8.481985482350967
 10
12.17657581433599
 20
8.483711495665293
 10
12.20428573936454
 20
8.486805260689031
 10
12.23144135234343
 20
8.491244486774295
 10
12.25784699645889
 20
8.496997189195411
 10
12.28331241843998
 20
8.504021919599615
 10
12.30765413933779
 20
8.512268064643375
 10
12.33069677649545
 20
8.52167621066269
 10
12.35227430718424
 20
8.532178571749899
 10
12.37223126480107
 20
8.54369947815271
 10
12.39042385900903
 20
8.556155921476495
 10
12.40672101174995
 20
8.569458152761662
 10
12.42100530166488
 20
8.583510329126983
 10
12.43317381011767
 20
8.598211204319738
 10
12.44313886272608
 20
8.613454858197297
 10
12.4508286610577
 20
8.629131459884163
 10
12.45618779993935
 20
8.645128059105953
 10
12.45917766665259
 20
8.66132939999872
 10
12.45985162601112
 20
8.673544578163284
  0
ARC
  5
11C6
330
1F
100
AcDbEntity
  8
0
100
AcDbCircle
 10
11.97283536491983
 20
8.702585470982786
 30
0.0
 40
0.1834245709640602
100
AcDbArc
 50
197.6853810483754
 51
243.9343994149418
  0
LWPOLYLINE
  5
11C7
330
1F
100
AcDbEntity
  8
0
100
AcDbPolyline
 90
       30
 70
   128
 43
0.0
 10
11.89223862126659
 20
8.520559906670175
 10
11.91302459428356
 20
8.509538342123029
 10
11.93535479847542
 20
8.499574110460294
 10
11.95906834420927
 20
8.490739004199433
 10
11.9839943748447
 20
8.483096680483509
 10
12.00995329775982
 20
8.476702202430015
 10
12.03675807832015
 20
8.471601642399868
 10
12.06421558746755
 20
8.467831750044947
 10
12.09212799321942
 20
8.465419687526068
 10
12.12029418605269
 20
8.464382833808947
 10
12.14851122790259
 20
8.464728659448383
 10
12.17657581433599
 20
8.466454672762708
 10
12.20428573936454
 20
8.469548437786446
 10
12.23144135234343
 20
8.47398766387171
 10
12.25784699645889
 20
8.479740366292826
 10
12.28331241843998
 20
8.48676509669703
 10
12.30765413933779
 20
8.49501124174079
 10
12.33069677649545
 20
8.504419387760105
 10
12.35227430718424
 20
8.514921748847314
 10
12.37223126480107
 20
8.526442655250129
 10
12.39042385900903
 20
8.53889909857391
 10
12.40672101174995
 20
8.552201329859077
 10
12.42100530166488
 20
8.566253506224395
 10
12.43317381011767
 20
8.580954381417154
 10
12.44313886272608
 20
8.596198035294712
 10
12.4508286610577
 20
8.611874636981578
 10
12.45618779993935
 20
8.627871236203368
 10
12.45917766665259
 20
8.644072577096135
 10
12.45977671913923
 20
8.660361928627484
 10
12.4595155210074
 20
8.664916166711517
  0
ARC
  5
11C8
330
1F
100
AcDbEntity
  8
0
100
AcDbCircle
 10
11.96533560283942
 20
8.676862251029369
 30
0.0
 40
0.1725502580909062
100
AcDbArc
 50
189.436714760464
 51
244.9361998689277
  0
LWPOLYLINE
  5
11C9
330
1F
100
AcDbEntity
  8
0
100
AcDbPolyline
 90
       29
 70
   128
 43
0.0
 10
11.89223862126659
 20
8.513320505216185
 10
11.91302459428356
 20
8.502298940669042
 10
11.93535479847542
 20
8.492334709006307
 10
11.95906834420927
 20
8.483499602745446
 10
11.9839943748447
 20
8.475857279029519
 10
12.00995329775982
 20
8.469462800976025
 10
12.03675807832015
 20
8.464362240945877
 10
12.06421558746755
 20
8.460592348590957
 10
12.09212799321942
 20
8.458180286072078
 10
12.12029418605269
 20
8.457143432354957
 10
12.14851122790259
 20
8.457489257994392
 10
12.17657581433599
 20
8.459215271308718
 10
12.20428573936454
 20
8.46230903633246
 10
12.23144135234343
 20
8.46674826241772
 10
12.25784699645889
 20
8.47250096483884
 10
12.28331241843998
 20
8.47952569524304
 10
12.30765413933779
 20
8.4877718402868
 10
12.33069677649545
 20
8.497179986306115
 10
12.35227430718424
 20
8.507682347393323
 10
12.37223126480107
 20
8.519203253796135
 10
12.39042385900903
 20
8.53165969711992
 10
12.40672101174995
 20
8.544961928405086
 10
12.42100530166488
 20
8.559014104770408
 10
12.43317381011767
 20
8.573714979963163
 10
12.44313886272608
 20
8.588958633840722
 10
12.4508286610577
 20
8.604635235527592
 10
12.45618779993935
 20
8.620631834749381
 10
12.45917766665259
 20
8.636833175642145
 10
12.45985162601112
 20
8.649048353806708
  0
ARC
  5
11CA
330
1F
100
AcDbEntity
  8
0
100
AcDbCircle
 10
11.95966393000114
 20
8.664501609896372
 30
0.0
 40
0.1655351886164118
100
AcDbArc
 50
185.3565496236869
 51
245.9635913339285
  0
LWPOLYLINE
  5
11CB
330
1F
100
AcDbEntity
  8
0
100
AcDbPolyline
 90
       30
 70
   128
 43
0.0
 10
11.89223862126659
 20
8.4960636823136
 10
11.91302459428356
 20
8.485042117766457
 10
11.93535479847542
 20
8.475077886103722
 10
11.95906834420927
 20
8.466242779842861
 10
11.9839943748447
 20
8.458600456126934
 10
12.00995329775982
 20
8.452205978073447
 10
12.03675807832015
 20
8.447105418043292
 10
12.06421558746755
 20
8.443335525688375
 10
12.09212799321942
 20
8.440923463169497
 10
12.12029418605269
 20
8.439886609452379
 10
12.14851122790259
 20
8.440232435091807
 10
12.17657581433599
 20
8.441958448406136
 10
12.20428573936454
 20
8.445052213429871
 10
12.23144135234343
 20
8.449491439515135
 10
12.25784699645889
 20
8.455244141936255
 10
12.28331241843998
 20
8.462268872340462
 10
12.30765413933779
 20
8.470515017384215
 10
12.33069677649545
 20
8.47992316340353
 10
12.35227430718424
 20
8.490425524490742
 10
12.37223126480107
 20
8.501946430893553
 10
12.39042385900903
 20
8.514402874217335
 10
12.40672101174995
 20
8.527705105502501
 10
12.42100530166488
 20
8.541757281867823
 10
12.43317381011767
 20
8.556458157060578
 10
12.44313886272608
 20
8.571701810938137
 10
12.4508286610577
 20
8.587378412625003
 10
12.45618779993935
 20
8.6033750118468
 10
12.45917766665259
 20
8.61957635273956
 10
12.45977671913923
 20
8.635865704270909
 10
12.45951552100716
 20
8.640419942358107
  0
ARC
  5
11CC
330
1F
100
AcDbEntity
  8
0
100
AcDbCircle
 10
11.95752118122
 20
8.644755073397703
 30
0.0
 40
0.1623913249425492
100
AcDbArc
 50
181.5297259498498
 51
246.2962515505654
  0
LWPOLYLINE
  5
11CD
330
1F
100
AcDbEntity
  8
0
100
AcDbPolyline
 90
       29
 70
   128
 43
0.0
 10
11.89223862126659
 20
8.488824280859617
 10
11.91302459428356
 20
8.477802716312467
 10
11.93535479847542
 20
8.467838484649732
 10
11.95906834420927
 20
8.459003378388871
 10
11.9839943748447
 20
8.451361054672947
 10
12.00995329775982
 20
8.444966576619457
 10
12.03675807832015
 20
8.439866016589302
 10
12.06421558746755
 20
8.436096124234381
 10
12.09212799321942
 20
8.433684061715506
 10
12.12029418605269
 20
8.432647207998389
 10
12.14851122790259
 20
8.432993033637821
 10
12.17657581433599
 20
8.434719046952146
 10
12.20428573936454
 20
8.437812811975888
 10
12.23144135234343
 20
8.442252038061148
 10
12.25784699645889
 20
8.448004740482264
 10
12.28331241843998
 20
8.455029470886472
 10
12.30765413933779
 20
8.463275615930232
 10
12.33069677649545
 20
8.472683761949543
 10
12.35227430718424
 20
8.483186123036752
 10
12.37223126480107
 20
8.494707029439567
 10
12.39042385900903
 20
8.507163472763352
 10
12.40672101174995
 20
8.520465704048515
 10
12.42100530166488
 20
8.534517880413833
 10
12.43317381011767
 20
8.549218755606588
 10
12.44313886272608
 20
8.564462409484153
 10
12.4508286610577
 20
8.580139011171016
 10
12.45618779993935
 20
8.59613561039281
 10
12.45917766665259
 20
8.61233695128557
 10
12.45985162601112
 20
8.62455212945014
  0
ARC
  5
11CE
330
1F
100
AcDbEntity
  8
0
100
AcDbCircle
 10
11.95966393000111
 20
8.64000538553978
 30
0.0
 40
0.1655351886163775
100
AcDbArc
 50
185.3565496236794
 51
245.9635913339352
  0
LWPOLYLINE
  5
11CF
330
1F
100
AcDbEntity
  8
0
100
AcDbPolyline
 90
       30
 70
   128
 43
0.0
 10
11.89223862126659
 20
8.471567457957032
 10
11.91302459428356
 20
8.460545893409882
 10
11.93535479847542
 20
8.45058166174715
 10
11.95906834420927
 20
8.441746555486286
 10
11.9839943748447
 20
8.434104231770362
 10
12.00995329775982
 20
8.427709753716872
 10
12.03675807832015
 20
8.422609193686721
 10
12.06421558746755
 20
8.418839301331804
 10
12.09212799321942
 20
8.416427238812921
 10
12.12029418605269
 20
8.415390385095804
 10
12.14851122790259
 20
8.415736210735236
 10
12.17657581433599
 20
8.417462224049561
 10
12.20428573936454
 20
8.420555989073303
 10
12.23144135234343
 20
8.424995215158567
 10
12.25784699645889
 20
8.430747917579683
 10
12.28331241843998
 20
8.437772647983887
 10
12.30765413933779
 20
8.446018793027647
 10
12.33069677649545
 20
8.455426939046962
 10
12.35227430718424
 20
8.465929300134167
 10
12.37223126480107
 20
8.477450206536982
 10
12.39042385900903
 20
8.489906649860767
 10
12.40672101174995
 20
8.503208881145933
 10
12.42100530166488
 20
8.517261057511252
 10
12.43317381011767
 20
8.53196193270401
 10
12.44313886272608
 20
8.547205586581569
 10
12.4508286610577
 20
8.562882188268435
 10
12.45618779993935
 20
8.578878787490225
 10
12.45917766665259
 20
8.595080128382988
 10
12.45977671913923
 20
8.61136947991434
 10
12.45951552100753
 20
8.615923717996768
  0
ARC
  5
11D0
330
1F
100
AcDbEntity
  8
0
100
AcDbCircle
 10
11.95752118122068
 20
8.620258849041938
 30
0.0
 40
0.1623913249435561
100
AcDbArc
 50
181.5297259511607
 51
246.2962515504602
  0
LWPOLYLINE
  5
11D1
330
1F
100
AcDbEntity
  8
0
100
AcDbPolyline
 90
       29
 70
   128
 43
0.0
 10
11.89223862126659
 20
8.464328056503042
 10
11.91302459428356
 20
8.453306491955896
 10
11.93535479847542
 20
8.443342260293164
 10
11.95906834420927
 20
8.434507154032299
 10
11.9839943748447
 20
8.426864830316375
 10
12.00995329775982
 20
8.420470352262881
 10
12.03675807832015
 20
8.415369792232727
 10
12.06421558746755
 20
8.411599899877813
 10
12.09212799321942
 20
8.409187837358935
 10
12.12029418605269
 20
8.408150983641814
 10
12.14851122790259
 20
8.408496809281249
 10
12.17657581433599
 20
8.410222822595574
 10
12.20428573936454
 20
8.413316587619313
 10
12.23144135234343
 20
8.417755813704577
 10
12.25784699645889
 20
8.423508516125693
 10
12.28331241843998
 20
8.430533246529897
 10
12.30765413933779
 20
8.438779391573657
 10
12.33069677649545
 20
8.448187537592968
 10
12.35227430718424
 20
8.45868989868018
 10
12.37223126480107
 20
8.470210805082992
 10
12.39042385900903
 20
8.482667248406777
 10
12.40672101174995
 20
8.495969479691943
 10
12.42100530166488
 20
8.510021656057265
 10
12.43317381011767
 20
8.52472253125002
 10
12.44313886272608
 20
8.539966185127578
 10
12.4508286610577
 20
8.555642786814445
 10
12.45618779993935
 20
8.571639386036235
 10
12.45917766665259
 20
8.587840726929002
 10
12.45985162601112
 20
8.600055905093565
  0
ARC
  5
11D2
330
1F
100
AcDbEntity
  8
0
100
AcDbCircle
 10
11.95966393000112
 20
8.615509161183215
 30
0.0
 40
0.1655351886163927
100
AcDbArc
 50
185.3565496236826
 51
245.9635913339321
  0
LWPOLYLINE
  5
11D3
330
1F
100
AcDbEntity
  8
0
100
AcDbPolyline
 90
       30
 70
   128
 43
0.0
 10
11.89223862126659
 20
8.447071233600457
 10
11.91302459428356
 20
8.436049669053311
 10
11.93535479847542
 20
8.426085437390575
 10
11.95906834420927
 20
8.417250331129714
 10
11.9839943748447
 20
8.40960800741379
 10
12.00995329775982
 20
8.4032135293603
 10
12.03675807832015
 20
8.398112969330149
 10
12.06421558746755
 20
8.394343076975228
 10
12.09212799321942
 20
8.39193101445635
 10
12.12029418605269
 20
8.390894160739229
 10
12.14851122790259
 20
8.391239986378661
 10
12.17657581433599
 20
8.392965999692989
 10
12.20428573936454
 20
8.396059764716728
 10
12.23144135234343
 20
8.400498990801992
 10
12.25784699645889
 20
8.406251693223108
 10
12.28331241843998
 20
8.413276423627312
 10
12.30765413933779
 20
8.421522568671072
 10
12.33069677649545
 20
8.430930714690386
 10
12.35227430718424
 20
8.441433075777595
 10
12.37223126480107
 20
8.452953982180407
 10
12.39042385900903
 20
8.465410425504192
 10
12.40672101174995
 20
8.478712656789358
 10
12.42100530166488
 20
8.492764833154677
 10
12.43317381011767
 20
8.507465708347435
 10
12.44313886272608
 20
8.522709362224993
 10
12.4508286610577
 20
8.53838596391186
 10
12.45618779993935
 20
8.55438256313365
 10
12.45917766665259
 20
8.570583904026417
 10
12.45977671913923
 20
8.586873255557765
 10
12.45951552100724
 20
8.59142749364393
  0
ARC
  5
11D4
330
1F
100
AcDbEntity
  8
0
100
AcDbCircle
 10
11.95752118122016
 20
8.595762624684741
 30
0.0
 40
0.1623913249427817
100
AcDbArc
 50
181.529725950151
 51
246.2962515505407
  0
LWPOLYLINE
  5
11D5
330
1F
100
AcDbEntity
  8
0
100
AcDbPolyline
 90
       29
 70
   128
 43
0.0
 10
11.89223862126659
 20
8.439831832146467
 10
11.91302459428356
 20
8.428810267599324
 10
11.93535479847542
 20
8.418846035936589
 10
11.95906834420927
 20
8.410010929675728
 10
11.9839943748447
 20
8.4023686059598
 10
12.00995329775982
 20
8.395974127906306
 10
12.03675807832015
 20
8.390873567876159
 10
12.06421558746755
 20
8.387103675521238
 10
12.09212799321942
 20
8.384691613002363
 10
12.12029418605269
 20
8.383654759285246
 10
12.14851122790259
 20
8.384000584924674
 10
12.17657581433599
 20
8.385726598239003
 10
12.20428573936454
 20
8.388820363262738
 10
12.23144135234343
 20
8.393259589348001
 10
12.25784699645889
 20
8.399012291769121
 10
12.28331241843998
 20
8.406037022173329
 10
12.30765413933779
 20
8.414283167217082
 10
12.33069677649545
 20
8.423691313236396
 10
12.35227430718424
 20
8.434193674323609
 10
12.37223126480107
 20
8.445714580726424
 10
12.39042385900903
 20
8.458171024050201
 10
12.40672101174995
 20
8.471473255335368
 10
12.42100530166488
 20
8.48552543170069
 10
12.43317381011767
 20
8.500226306893445
 10
12.44313886272608
 20
8.515469960771003
 10
12.4508286610577
 20
8.53114656245787
 10
12.45618779993935
 20
8.547143161679667
 10
12.45917766665259
 20
8.563344502572427
 10
12.45985162601112
 20
8.575559680736997
  0
ARC
  5
11D6
330
1F
100
AcDbEntity
  8
0
100
AcDbCircle
 10
11.95966393000114
 20
8.591012936826651
 30
0.0
 40
0.1655351886164057
100
AcDbArc
 50
185.3565496236835
 51
245.9635913339303
  0
LWPOLYLINE
  5
11D7
330
1F
100
AcDbEntity
  8
0
100
AcDbPolyline
 90
       30
 70
   128
 43
0.0
 10
11.89223862126659
 20
8.422575009243885
 10
11.91302459428356
 20
8.411553444696739
 10
11.93535479847542
 20
8.401589213034004
 10
11.95906834420927
 20
8.392754106773143
 10
11.9839943748447
 20
8.385111783057219
 10
12.00995329775982
 20
8.378717305003728
 10
12.03675807832015
 20
8.373616744973574
 10
12.06421558746755
 20
8.369846852618657
 10
12.09212799321942
 20
8.367434790099778
 10
12.12029418605269
 20
8.366397936382661
 10
12.14851122790259
 20
8.366743762022093
 10
12.17657581433599
 20
8.368469775336418
 10
12.20428573936454
 20
8.37156354036016
 10
12.23144135234343
 20
8.376002766445417
 10
12.25784699645889
 20
8.381755468866536
 10
12.28331241843998
 20
8.388780199270744
 10
12.30765413933779
 20
8.397026344314504
 10
12.33069677649545
 20
8.406434490333811
 10
12.35227430718424
 20
8.416936851421024
 10
12.37223126480107
 20
8.428457757823835
 10
12.39042385900903
 20
8.44091420114762
 10
12.40672101174995
 20
8.454216432432783
 10
12.42100530166488
 20
8.468268608798105
 10
12.43317381011767
 20
8.48296948399086
 10
12.44313886272608
 20
8.498213137868422
 10
12.4508286610577
 20
8.513889739555285
 10
12.45618779993935
 20
8.529886338777082
 10
12.45917766665259
 20
8.546087679669842
 10
12.45977671913923
 20
8.56237703120119
 10
12.45951552100744
 20
8.566931269284669
  0
ARC
  5
11D8
330
1F
100
AcDbEntity
  8
0
100
AcDbCircle
 10
11.95752118122056
 20
8.571266400328642
 30
0.0
 40
0.1623913249433717
100
AcDbArc
 50
181.5297259509028
 51
246.296251550478
  0
LWPOLYLINE
  5
11D9
330
1F
100
AcDbEntity
  8
0
100
AcDbPolyline
 90
       29
 70
   128
 43
0.0
 10
11.89223862126659
 20
8.415335607789899
 10
11.91302459428356
 20
8.404314043242749
 10
11.93535479847542
 20
8.394349811580017
 10
11.95906834420927
 20
8.385514705319152
 10
11.9839943748447
 20
8.377872381603229
 10
12.00995329775982
 20
8.371477903549738
 10
12.03675807832015
 20
8.366377343519584
 10
12.06421558746755
 20
8.36260745116467
 10
12.09212799321942
 20
8.360195388645788
 10
12.12029418605269
 20
8.359158534928671
 10
12.14851122790259
 20
8.359504360568102
 10
12.17657581433599
 20
8.361230373882428
 10
12.20428573936454
 20
8.364324138906166
 10
12.23144135234343
 20
8.368763364991433
 10
12.25784699645889
 20
8.374516067412546
 10
12.28331241843998
 20
8.381540797816754
 10
12.30765413933779
 20
8.389786942860514
 10
12.33069677649545
 20
8.399195088879825
 10
12.35227430718424
 20
8.409697449967033
 10
12.37223126480107
 20
8.421218356369848
 10
12.39042385900903
 20
8.433674799693633
 10
12.40672101174995
 20
8.446977030978796
 10
12.42100530166488
 20
8.461029207344118
 10
12.43317381011767
 20
8.47573008253687
 10
12.44313886272608
 20
8.490973736414435
 10
12.4508286610577
 20
8.506650338101302
 10
12.45618779993935
 20
8.522646937323091
 10
12.45917766665259
 20
8.538848278215855
 10
12.45985162601112
 20
8.551063456380422
  0
ARC
  5
11DA
330
1F
100
AcDbEntity
  8
0
100
AcDbCircle
 10
11.95966393000111
 20
8.566516712470068
 30
0.0
 40
0.165535188616384
100
AcDbArc
 50
185.3565496236818
 51
245.963591333935
  0
LWPOLYLINE
  5
11DB
330
1F
100
AcDbEntity
  8
0
100
AcDbPolyline
 90
       30
 70
   128
 43
0.0
 10
11.89223862126659
 20
8.398078784887314
 10
11.91302459428356
 20
8.387057220340167
 10
11.93535479847542
 20
8.377092988677432
 10
11.95906834420927
 20
8.368257882416571
 10
11.9839943748447
 20
8.360615558700644
 10
12.00995329775982
 20
8.354221080647153
 10
12.03675807832015
 20
8.349120520617002
 10
12.06421558746755
 20
8.345350628262085
 10
12.09212799321942
 20
8.342938565743203
 10
12.12029418605269
 20
8.341901712026086
 10
12.14851122790259
 20
8.342247537665517
 10
12.17657581433599
 20
8.343973550979843
 10
12.20428573936454
 20
8.347067316003585
 10
12.23144135234343
 20
8.351506542088849
 10
12.25784699645889
 20
8.357259244509965
 10
12.28331241843998
 20
8.364283974914169
 10
12.30765413933779
 20
8.372530119957929
 10
12.33069677649545
 20
8.381938265977243
 10
12.35227430718424
 20
8.392440627064448
 10
12.37223126480107
 20
8.403961533467267
 10
12.39042385900903
 20
8.416417976791048
 10
12.40672101174995
 20
8.429720208076215
 10
12.42100530166488
 20
8.443772384441533
 10
12.43317381011767
 20
8.458473259634292
 10
12.44313886272608
 20
8.47371691351185
 10
12.4508286610577
 20
8.489393515198717
 10
12.45618779993935
 20
8.505390114420507
 10
12.45917766665259
 20
8.52159145531327
 10
12.45977671913923
 20
8.537880806844622
 10
12.45951552100712
 20
8.542435044932272
  0
ARC
  5
11DC
330
1F
100
AcDbEntity
  8
0
100
AcDbCircle
 10
11.95752118121998
 20
8.546770175971399
 30
0.0
 40
0.1623913249425219
100
AcDbArc
 50
181.5297259498174
 51
246.2962515505709
  0
LWPOLYLINE
  5
11DD
330
1F
100
AcDbEntity
  8
0
100
AcDbPolyline
 90
       29
 70
   128
 43
0.0
 10
11.89223862126659
 20
8.386293676041461
 10
11.91302459428356
 20
8.375272111494314
 10
11.93535479847542
 20
8.365307879831579
 10
11.95906834420927
 20
8.356472773570718
 10
11.9839943748447
 20
8.348830449854794
 10
12.00995329775982
 20
8.342435971801304
 10
12.03675807832015
 20
8.33733541177115
 10
12.06421558746755
 20
8.333565519416232
 10
12.09212799321942
 20
8.331153456897354
 10
12.12029418605269
 20
8.330116603180236
 10
12.14851122790259
 20
8.330462428819668
 10
12.17657581433599
 20
8.332188442133993
 10
12.20428573936454
 20
8.335282207157735
 10
12.23144135234343
 20
8.339721433242992
 10
12.25784699645889
 20
8.345474135664112
 10
12.28331241843998
 20
8.352498866068319
 10
12.30765413933779
 20
8.360745011112079
 10
12.33069677649545
 20
8.370153157131387
 10
12.35227430718424
 20
8.380655518218599
 10
12.37223126480107
 20
8.392176424621411
 10
12.39042385900903
 20
8.404632867945196
 10
12.40672101174995
 20
8.417935099230358
 10
12.42100530166488
 20
8.43198727559568
 10
12.43317381011767
 20
8.446688150788435
 10
12.44313886272608
 20
8.461931804665997
 10
12.4508286610577
 20
8.47760840635286
 10
12.45618779993935
 20
8.493605005574657
 10
12.45917766665259
 20
8.509806346467417
 10
12.45985162601112
 20
8.522021524631984
  0
ARC
  5
11DE
330
1F
100
AcDbEntity
  8
0
100
AcDbCircle
 10
11.95966393000112
 20
8.537474780721634
 30
0.0
 40
0.1655351886163927
100
AcDbArc
 50
185.3565496236826
 51
245.9635913339321
  0
LINE
  5
11DF
330
1F
100
AcDbEntity
  8
0
  6
Continuous
 62
     7
370
    15
100
AcDbLine
 10
7.245636731247615
 20
7.567647955360704
 30
0.0
 11
8.261636731247612
 21
7.567647955360704
 31
0.0
  0
ARC
  5
11E0
330
1F
100
AcDbEntity
  8
0
  6
Continuous
 62
     7
370
    15
100
AcDbCircle
 10
7.558956356932257
 20
8.709954443171209
 30
0.0
 40
0.0299999999999998
100
AcDbArc
 50
90.0
 51
135.0000000000013
  0
LINE
  5
11E1
330
1F
100
AcDbEntity
  8
0
  6
Continuous
 62
     7
370
    15
100
AcDbLine
 10
7.948317105562968
 20
8.739954443171209
 30
0.0
 11
7.558956356932257
 21
8.739954443171209
 31
0.0
  0
ARC
  5
11E2
330
1F
100
AcDbEntity
  8
0
  6
Continuous
 62
     7
370
    15
100
AcDbCircle
 10
7.948317105562968
 20
8.709954443171209
 30
0.0
 40
0.0300000000000023
100
AcDbArc
 50
44.99999999999407
 51
90.0
  0
LINE
  5
11E3
330
1F
100
AcDbEntity
  8
0
  6
Continuous
 62
     7
370
    15
100
AcDbLine
 10
8.244849934683212
 20
8.455848020922157
 30
0.0
 11
7.969530308998568
 21
8.731167646606806
 31
0.0
  0
ARC
  5
11E4
330
1F
100
AcDbEntity
  8
0
  6
Continuous
 62
     7
370
    15
100
AcDbCircle
 10
8.223636731247616
 20
8.434634817486561
 30
0.0
 40
0.0300000000000011
100
AcDbArc
 50
0.0
 51
44.99999999999881
  0
LINE
  5
11E5
330
1F
100
AcDbEntity
  8
0
  6
Continuous
 62
     7
370
    15
100
AcDbLine
 10
8.253636731247617
 20
8.045274068855853
 30
0.0
 11
8.253636731247617
 21
8.434634817486561
 31
0.0
  0
ARC
  5
11E6
330
1F
100
AcDbEntity
  8
0
  6
Continuous
 62
     7
370
    15
100
AcDbCircle
 10
8.223636731247616
 20
8.045274068855853
 30
0.0
 40
0.0300000000000011
100
AcDbArc
 50
315.0000000000006
 51
0.0
  0
LINE
  5
11E7
330
1F
100
AcDbEntity
  8
0
  6
Continuous
 62
     7
370
    15
100
AcDbLine
 10
7.969530308998568
 20
7.748741239735609
 30
0.0
 11
8.244849934683212
 21
8.024060865420256
 31
0.0
  0
ARC
  5
11E8
330
1F
100
AcDbEntity
  8
0
  6
Continuous
 62
     7
370
    15
100
AcDbCircle
 10
7.948317105562968
 20
7.769954443171204
 30
0.0
 40
0.0300000000000023
100
AcDbArc
 50
270.0000000000008
 51
315.0000000000066
  0
LINE
  5
11E9
330
1F
100
AcDbEntity
  8
0
  6
Continuous
 62
     7
370
    15
100
AcDbLine
 10
7.558956356932264
 20
7.739954443171205
 30
0.0
 11
7.948317105562968
 21
7.739954443171205
 31
0.0
  0
ARC
  5
11EA
330
1F
100
AcDbEntity
  8
0
  6
Continuous
 62
     7
370
    15
100
AcDbCircle
 10
7.558956356932264
 20
7.769954443171204
 30
0.0
 40
0.0300000000000023
100
AcDbArc
 50
224.9999999999948
 51
270.0000000000008
  0
LINE
  5
11EB
330
1F
100
AcDbEntity
  8
0
  6
Continuous
 62
     7
370
    15
100
AcDbLine
 10
7.262423527812019
 20
8.024060865420256
 30
0.0
 11
7.537743153496664
 21
7.748741239735609
 31
0.0
  0
ARC
  5
11EC
330
1F
100
AcDbEntity
  8
0
  6
Continuous
 62
     7
370
    15
100
AcDbCircle
 10
7.283636731247615
 20
8.045274068855853
 30
0.0
 40
0.0300000000000011
100
AcDbArc
 50
180.0
 51
225.0000000000007
  0
LINE
  5
11ED
330
1F
100
AcDbEntity
  8
0
  6
Continuous
 62
     7
370
    15
100
AcDbLine
 10
7.253636731247614
 20
8.434634817486564
 30
0.0
 11
7.253636731247614
 21
8.045274068855853
 31
0.0
  0
ARC
  5
11EE
330
1F
100
AcDbEntity
  8
0
  6
Continuous
 62
     7
370
    15
100
AcDbCircle
 10
7.283636731247615
 20
8.434634817486564
 30
0.0
 40
0.0300000000000011
100
AcDbArc
 50
134.9999999999999
 51
180.0
  0
LINE
  5
11EF
330
1F
100
AcDbEntity
  8
0
  6
Continuous
 62
     7
370
    15
100
AcDbLine
 10
7.53774315349666
 20
8.731167646606806
 30
0.0
 11
7.262423527812019
 21
8.455848020922161
 31
0.0
  0
CIRCLE
  5
11F0
330
1F
100
AcDbEntity
  8
0
  6
Continuous
 62
     7
370
    15
100
AcDbCircle
 10
7.753636731247614
 20
8.239954443171207
 30
0.0
 40
0.3609807621135328
  0
CIRCLE
  5
11F1
330
1F
100
AcDbEntity
  8
0
  6
Continuous
 62
     7
370
    15
100
AcDbCircle
 10
7.753636731247614
 20
8.239954443171207
 30
0.0
 40
0.335
  0
CIRCLE
  5
11F2
330
1F
100
AcDbEntity
  8
0
  6
Continuous
 62
     7
370
    15
100
AcDbCircle
 10
7.753636731247614
 20
8.239954443171207
 30
0.0
 40
0.3324999999999996
  0
LINE
  5
11F3
330
1F
100
AcDbEntity
  8
0
  6
Continuous
 62
     7
370
    15
100
AcDbLine
 10
8.255189231247612
 20
8.934969443173823
 30
0.0
 11
7.252317231247617
 21
8.934969443173823
 31
0.0
  0
LINE
  5
11F4
330
1F
100
AcDbEntity
  8
0
  6
Continuous
 62
     7
370
    15
100
AcDbLine
 10
8.255189231247612
 20
8.934969443173823
 30
0.0
 11
8.255189231247612
 21
7.567954443171207
 31
0.0
  0
LINE
  5
11F5
330
1F
100
AcDbEntity
  8
0
  6
Continuous
 62
     7
370
    15
100
AcDbLine
 10
8.255189231247612
 20
7.567954443171207
 30
0.0
 11
7.252317231247617
 21
7.567954443171207
 31
0.0
  0
LINE
  5
11F6
330
1F
100
AcDbEntity
  8
0
  6
Continuous
 62
     7
370
    15
100
AcDbLine
 10
7.252317231247617
 20
7.567954443171207
 30
0.0
 11
7.252317231247617
 21
8.934969443173823
 31
0.0
  0
LINE
  5
11F7
330
1F
100
AcDbEntity
  8
0
  6
Continuous
 62
     7
370
    15
100
AcDbLine
 10
7.245753231247612
 20
9.157250087050561
 30
0.0
 11
7.245753231247612
 21
7.567954443171207
 31
0.0
  0
LINE
  5
11F8
330
1F
100
AcDbEntity
  8
0
  6
Continuous
 62
     7
370
    15
100
AcDbLine
 10
7.252317231247617
 20
8.934969443173823
 30
0.0
 11
7.245753231247612
 21
9.157250087050561
 31
0.0
  0
LINE
  5
11F9
330
1F
100
AcDbEntity
  8
0
  6
Continuous
 62
     7
370
    15
100
AcDbLine
 10
7.252317231247617
 20
7.567954443171207
 30
0.0
 11
7.245902141151732
 21
7.567954443171207
 31
0.0
  0
LINE
  5
11FA
330
1F
100
AcDbEntity
  8
0
  6
Continuous
 62
     7
370
    15
100
AcDbLine
 10
8.261636731247612
 20
7.567954443171207
 30
0.0
 11
8.261636731247612
 21
9.153304978121273
 31
0.0
  0
LINE
  5
11FB
330
1F
100
AcDbEntity
  8
0
  6
Continuous
 62
     7
370
    15
100
AcDbLine
 10
8.261636731247612
 20
9.153304978121273
 30
0.0
 11
8.255189231247612
 21
8.934969443173823
 31
0.0
  0
LINE
  5
11FC
330
1F
100
AcDbEntity
  8
0
  6
Continuous
 62
     7
370
    15
100
AcDbLine
 10
8.261604321343497
 20
7.567954443171207
 30
0.0
 11
8.255189231247612
 21
7.567954443171207
 31
0.0
  0
ELLIPSE
  5
11FD
330
1F
100
AcDbEntity
  8
0
  6
Continuous
 62
     7
370
    15
100
AcDbEllipse
 10
7.312362476677408
 20
9.155373757623559
 30
0.0
 11
0.0666858434263347
 21
0.0
 31
0.0
210
0.0
220
0.0
230
1.0
 40
0.5872098206430792
 41
1.888368804391092
 42
3.093658125255729
  0
ELLIPSE
  5
11FE
330
1F
100
AcDbEntity
  8
0
  6
Continuous
 62
     7
370
    15
100
AcDbEllipse
 10
7.753753231247611
 20
8.366840163095282
 30
0.0
 11
1.480215761637225
 21
0.0
 31
0.0
210
0.0
220
0.0
230
1.0
 40
0.5872098206430552
 41
1.253223849198759
 42
1.888368804391029
  0
ELLIPSE
  5
11FF
330
1F
100
AcDbEntity
  8
0
  6
Continuous
 62
     7
370
    15
100
AcDbEllipse
 10
8.195143985817821
 20
9.155373757623559
 30
0.0
 11
0.0666858434263418
 21
0.0
 31
0.0
210
0.0
220
0.0
230
1.0
 40
0.5872098206430298
 41
0.0761187959256084
 42
1.253223849198725
  0
LINE
  5
1200
330
1F
100
AcDbEntity
  8
0
  6
Continuous
 62
     7
370
    15
100
AcDbLine
 10
8.261636731247612
 20
9.158351584179399
 30
0.0
 11
8.261636731247612
 21
9.153304978121273
 31
0.0
  0
LINE
  5
1201
330
1F
100
AcDbEntity
  8
0
  6
Continuous
 62
     7
370
    15
100
AcDbLine
 10
7.245902141151732
 20
7.567954443171207
 30
0.0
 11
7.245636731247615
 21
7.567954443171207
 31
0.0
  0
LINE
  5
1202
330
1F
100
AcDbEntity
  8
0
  6
Continuous
 62
     7
370
    15
100
AcDbLine
 10
8.261636731247612
 20
7.567954443171207
 30
0.0
 11
8.261636731247612
 21
7.567647955360704
 31
0.0
  0
LINE
  5
1203
330
1F
100
AcDbEntity
  8
0
  6
Continuous
 62
     7
370
    15
100
AcDbLine
 10
7.245636731247615
 20
7.567954443171207
 30
0.0
 11
7.245636731247615
 21
7.567647955360704
 31
0.0
  0
LINE
  5
1204
330
1F
100
AcDbEntity
  8
0
  6
Continuous
 62
     7
370
    15
100
AcDbLine
 10
8.261636731247612
 20
7.567954443171207
 30
0.0
 11
8.261604321343497
 21
7.567954443171207
 31
0.0
  0
CIRCLE
  5
1205
330
1F
100
AcDbEntity
  8
0
  6
HIDDEN
 62
     7
370
     0
100
AcDbCircle
 10
7.753636731247614
 20
8.239954443171207
 30
0.0
 40
0.3642887320942023
  0
CIRCLE
  5
1206
330
1F
100
AcDbEntity
  8
0
  6
HIDDEN
 62
     7
370
     0
100
AcDbCircle
 10
7.753636731247614
 20
8.239954443171207
 30
0.0
 40
0.4399999999999995
  0
CIRCLE
  5
1207
330
1F
100
AcDbEntity
  8
0
  6
HIDDEN
 62
     7
370
     0
100
AcDbCircle
 10
7.753636731247614
 20
8.239954443171207
 30
0.0
 40
0.3141973667394122
  0
CIRCLE
  5
1208
330
1F
100
AcDbEntity
  8
0
  6
HIDDEN
 62
     7
370
     0
100
AcDbCircle
 10
7.753636731247614
 20
8.239954443171207
 30
0.0
 40
0.4689999999999995
  0
SPLINE
  5
1209
330
1F
100
AcDbEntity
  8
0
  6
HIDDEN
 62
     7
370
     0
100
AcDbSpline
210
0.0
220
0.0
230
1.0
 70
     8
 71
     3
 72
    14
 73
    10
 74
     0
 42
0.0000000001
 43
0.0000000001
 40
0.0
 40
0.0
 40
0.0
 40
0.0
 40
0.25
 40
0.25
 40
0.5
 40
0.5
 40
0.75
 40
0.75
 40
1.0
 40
1.0
 40
1.0
 40
1.0
 10
8.261378119849361
 20
7.567954443171207
 30
0.0
 10
8.260546906528468
 20
7.568618751143111
 30
0.0
 10
8.258624793915466
 20
7.57031633881765
 30
0.0
 10
8.253077638686107
 20
7.575241970327653
 30
0.0
 10
8.24953088426249
 20
7.578401703799578
 30
0.0
 10
8.241435518255098
 20
7.585444402814509
 30
0.0
 10
8.236962854391638
 20
7.58927348754155
 30
0.0
 10
8.227129702619976
 20
7.597164615477267
 30
0.0
 10
8.22183750905301
 20
7.601230017805953
 30
0.0
 10
8.21596739703105
 20
7.604820990113835
 30
0.0
  0
SPLINE
  5
120A
330
1F
100
AcDbEntity
  8
0
  6
HIDDEN
 62
     7
370
     0
100
AcDbSpline
210
0.0
220
0.0
230
1.0
 70
     8
 71
     3
 72
     8
 73
     4
 74
     0
 42
0.0000000001
 43
0.0000000001
 40
0.0
 40
0.0
 40
0.0
 40
0.0
 40
1.0
 40
1.0
 40
1.0
 40
1.0
 10
8.21596739703105
 20
7.604820990113835
 30
0.0
 10
8.211328014800855
 20
7.607659077879788
 30
0.0
 10
8.206865424531336
 20
7.61077758303992
 30
0.0
 10
8.202751989940793
 20
7.614434517444134
 30
0.0
  0
LINE
  5
120B
330
1F
100
AcDbEntity
  8
0
  6
HIDDEN
 62
     7
370
     0
100
AcDbLine
 10
8.2027519899408
 20
7.614434517444134
 30
0.0
 11
7.304754472554429
 21
7.614434517444134
 31
0.0
  0
SPLINE
  5
120C
330
1F
100
AcDbEntity
  8
0
  6
HIDDEN
 62
     7
370
     0
100
AcDbSpline
210
0.0
220
0.0
230
1.0
 70
     8
 71
     3
 72
     8
 73
     4
 74
     0
 42
0.0000000001
 43
0.0000000001
 40
0.0
 40
0.0
 40
0.0
 40
0.0
 40
1.0
 40
1.0
 40
1.0
 40
1.0
 10
7.304754472554429
 20
7.614434517444134
 30
0.0
 10
7.300641037963893
 20
7.610777583039921
 30
0.0
 10
7.296178447694374
 20
7.607659077879787
 30
0.0
 10
7.291539065464179
 20
7.604820990113835
 30
0.0
  0
SPLINE
  5
120D
330
1F
100
AcDbEntity
  8
0
  6
HIDDEN
 62
     7
370
     0
100
AcDbSpline
210
0.0
220
0.0
230
1.0
 70
     8
 71
     3
 72
    14
 73
    10
 74
     0
 42
0.0000000001
 43
0.0000000001
 40
0.0
 40
0.0
 40
0.0
 40
0.0
 40
0.25
 40
0.25
 40
0.5
 40
0.5
 40
0.75
 40
0.75
 40
1.0
 40
1.0
 40
1.0
 40
1.0
 10
7.291539065464179
 20
7.604820990113833
 30
0.0
 10
7.285654726928503
 20
7.601221314902737
 30
0.0
 10
7.280450235715329
 20
7.597219725195047
 30
0.0
 10
7.270685496739418
 20
7.58939112432633
 30
0.0
 10
7.266103153423711
 20
7.58547186299673
 30
0.0
 10
7.258029416056431
 20
7.578449095708745
 30
0.0
 10
7.254458902087553
 20
7.575268737194985
 30
0.0
 10
7.248926806839688
 20
7.570356361750544
 30
0.0
 10
7.246959877860384
 20
7.568619008401378
 30
0.0
 10
7.246128342645868
 20
7.567954443171207
 30
0.0
  0
LINE
  5
120E
330
1F
100
AcDbEntity
  8
0
  6
HIDDEN
 62
     7
370
     0
100
AcDbLine
 10
8.21596739703105
 20
9.192574263352986
 30
0.0
 11
8.21596739703105
 21
7.604820990113835
 31
0.0
  0
LINE
  5
120F
330
1F
100
AcDbEntity
  8
0
  6
HIDDEN
 62
     7
370
     0
100
AcDbLine
 10
7.291539065464179
 20
9.192574263352986
 30
0.0
 11
7.291539065464179
 21
7.604820990113835
 31
0.0
  0
SPLINE
  5
1210
330
1F
100
AcDbEntity
  8
0
  6
HIDDEN
 62
     7
370
     0
100
AcDbSpline
210
0.0
220
0.0
230
1.0
 70
     8
 71
     3
 72
    38
 73
    34
 74
     0
 42
0.0000000001
 43
0.0000000001
 40
0.0
 40
0.0
 40
0.0
 40
0.0
 40
0.1250000000000008
 40
0.1250000000000008
 40
0.2500000000000015
 40
0.2500000000000015
 40
0.3125000000000019
 40
0.3125000000000019
 40
0.3750000000000023
 40
0.3750000000000023
 40
0.406250000000002
 40
0.406250000000002
 40
0.4375000000000017
 40
0.4375000000000017
 40
0.4687500000000015
 40
0.4687500000000015
 40
0.5000000000000011
 40
0.5000000000000011
 40
0.5312500000000008
 40
0.5312500000000008
 40
0.5625000000000004
 40
0.5625000000000004
 40
0.59375
 40
0.59375
 40
0.6249999999999997
 40
0.6249999999999997
 40
0.6875
 40
0.6875
 40
0.7500000000000005
 40
0.7500000000000005
 40
0.8750000000000001
 40
0.8750000000000001
 40
1.0
 40
1.0
 40
1.0
 40
1.0
 10
8.2027519899408
 20
7.614434517444134
 30
0.0
 10
8.168089220478194
 20
7.645250486776587
 30
0.0
 10
8.133189887662915
 20
7.676183676808697
 30
0.0
 10
8.062723842878476
 20
7.738037909459078
 30
0.0
 10
8.027153597037624
 20
7.769006918054157
 30
0.0
 10
7.9729822810754
 20
7.814791105409518
 30
0.0
 10
7.954783948411564
 20
7.829941079666471
 30
0.0
 10
7.917850274100083
 20
7.859712180955934
 30
0.0
 10
7.899123344096602
 20
7.874364901828311
 30
0.0
 10
7.870237149324073
 20
7.895232290730209
 30
0.0
 10
7.860469271772601
 20
7.90200051614671
 30
0.0
 10
7.840444985628306
 20
7.91486452432391
 30
0.0
 10
7.830169475485655
 20
7.92097895294432
 30
0.0
 10
7.80899595527335
 20
7.931771973632514
 30
0.0
 10
7.798028986937574
 20
7.936496156543356
 30
0.0
 10
7.7750487388025
 20
7.943156636564362
 30
0.0
 10
7.763334737367665
 20
7.944947449500812
 30
0.0
 10
7.739307244525606
 20
7.944403021897134
 30
0.0
 10
7.727639707514094
 20
7.942088044461986
 30
0.0
 10
7.704929036811567
 20
7.934678067145069
 30
0.0
 10
7.694093232847493
 20
7.929701971611656
 30
0.0
 10
7.673281947857163
 20
7.918636229300098
 30
0.0
 10
7.663231605748749
 20
7.912500734875433
 30
0.0
 10
7.643510329306242
 20
7.899593383178288
 30
0.0
 10
7.633842550852262
 20
7.89281229448775
 30
0.0
 10
7.605190675801677
 20
7.871911938889109
 30
0.0
 10
7.586679706315753
 20
7.857358137278101
 30
0.0
 10
7.550151281847679
 20
7.827815803142234
 30
0.0
 10
7.532152762173745
 20
7.812805104428867
 30
0.0
 10
7.478593094218106
 20
7.767479527658828
 30
0.0
 10
7.443458800953483
 20
7.73688148604261
 30
0.0
 10
7.373722333750678
 20
7.675656294179772
 30
0.0
 10
7.339140867200986
 20
7.645004783447409
 30
0.0
 10
7.304754472554429
 20
7.614434517444135
 30
0.0
  0
INSERT
  5
1211
330
1F
100
AcDbEntity
  8
0
  6
Continuous
 62
     7
370
     0
100
AcDbBlockReference
  2
SW_CENTERMARKSYMBOL_0
 10
7.753636731247614
 20
8.239954443171196
 30
0.0
  0
DIMENSION
  5
1B82
330
1F
100
AcDbEntity
  8
DIM
100
AcDbDimension
  2
*D5
 10
8.261636731247612
 20
5.644581850814297
 30
0.0
 11
7.753694981247612
 21
5.768103264818376
 31
0.0
 70
    32
 71
     5
 42
1.0158835
 73
     0
 74
     0
 75
     0
  3
Standard
100
AcDbAlignedDimension
 13
7.245753231247612
 23
5.006358768616884
 33
0.0
 14
8.261636731247612
 24
5.008234583853816
 34
0.0
100
AcDbRotatedDimension
  0
DIMENSION
  5
1BA1
330
1F
100
AcDbEntity
  8
DIM
100
AcDbDimension
  2
*D6
 10
8.807297398682216
 20
4.625755368525027
 30
0.0
 11
8.683775984678135
 21
4.200106150306129
 31
0.0
 70
    32
 71
     5
 42
0.5147757268803641
 73
     0
 74
     0
 75
     0
  3
Standard
100
AcDbAlignedDimension
 13
7.753753231247616
 23
5.140531095405391
 33
0.0
 14
8.255189231247612
 24
4.625755368525027
 34
0.0
 50
90.0
100
AcDbRotatedDimension
  0
DIMENSION
  5
1BBB
330
1F
100
AcDbEntity
  8
DIM
100
AcDbDimension
  2
*D7
 10
2.825506557208079
 20
3.55748468409245
 30
0.0
 11
2.493006557208079
 21
3.681006098096529
 31
0.0
 70
    32
 71
     5
 42
0.6649999999999992
 73
     0
 74
     0
 75
     0
  3
Standard
100
AcDbAlignedDimension
 13
2.16050655720808
 23
4.010028292409495
 33
0.0
 14
2.825506557208079
 24
4.010028292409495
 34
0.0
100
AcDbRotatedDimension
  0
DIMENSION
  5
1BC8
330
1F
100
AcDbEntity
  8
DIM
100
AcDbDimension
  2
*D8
 10
3.903098856106204
 20
4.510028292409495
 30
0.0
 11
3.779577442102125
 21
3.944379074190597
 31
0.0
 70
    32
 71
     5
 42
0.1150000000000002
 73
     0
 74
     0
 75
     0
  3
Standard
100
AcDbAlignedDimension
 13
3.167006557208081
 23
4.625028292409496
 33
0.0
 14
2.962006557208077
 24
4.510028292409495
 34
0.0
 50
90.0
100
AcDbRotatedDimension
  0
DIMENSION
  5
1BD7
330
1F
100
AcDbEntity
  8
DIM
100
AcDbDimension
  2
*D9
 10
3.500254835702435
 20
4.010028292409495
 30
0.0
 11
3.376733421698355
 21
3.583236993973058
 31
0.0
 70
    32
 71
     5
 42
0.5
 73
     0
 74
     0
 75
     0
  3
Standard
100
AcDbAlignedDimension
 13
2.962006557208077
 23
4.510028292409495
 33
0.0
 14
2.825506557208079
 24
4.010028292409495
 34
0.0
 50
90.0
100
AcDbRotatedDimension
  0
DIMENSION
  5
1BE4
330
1F
100
AcDbEntity
  8
DIM
100
AcDbDimension
  2
*D10
 10
9.360231309544758
 20
9.139442240281805
 30
0.0
 11
9.094020748415516
 21
9.580338460339117
 31
0.0
 70
    33
 71
     5
 42
1.000000000000006
 73
     0
 74
     0
 75
     0
  3
Standard
100
AcDbAlignedDimension
 13
7.53774315349666
 23
8.731167646606806
 33
0.0
 14
8.244849934683214
 24
8.024060865420256
 34
0.0
  0
TEXT
  5
1C40
330
1F
100
AcDbEntity
  8
DIM
100
AcDbText
 10
5.379559352708769
 20
3.248164137399205
 30
0.0
 40
0.14
  1
RUBBER GASKET
 72
     2
 11
6.839994430886879
 21
3.318164137399205
 31
0.0
100
AcDbText
 73
     2
  0
TEXT
  5
1C41
330
1F
100
AcDbEntity
  8
DIM
100
AcDbText
 10
9.281546430886876
 20
3.189713137399207
 30
0.0
 40
0.14
  1
NUT
 11
9.281546430886876
 21
3.259713137399207
 31
0.0
100
AcDbText
 73
     2
  0
LEADER
  5
1C42
330
1F
100
AcDbEntity
  8
DIM
100
AcDbLeader
  3
Standard
 76
     3
 10
7.313636731247613
 20
3.512821768616923
 30
0.0
 10
6.999592439481141
 20
3.299093859353678
 30
0.0
 10
6.907383144968485
 20
3.299093859353678
 30
0.0
1001
ACAD
1000
DSTYLE
1002
{
1070
   147
1040
0.05
1070
    77
1070
     0
1002
}
  0
LEADER
  5
1C43
330
1F
100
AcDbEntity
  8
DIM
100
AcDbLeader
  3
Standard
 76
     3
 10
8.244849934683212
 20
2.925411766362401
 30
0.0
 10
8.952777506778872
 20
3.250938729290169
 30
0.0
 10
9.212131254733257
 20
3.250938729290169
 30
0.0
1001
ACAD
1000
DSTYLE
1002
{
1070
   147
1040
0.05
1070
    77
1070
     0
1002
}
  0
DIMENSION
  5
1CE6
330
1F
100
AcDbEntity
  8
DIM
100
AcDbDimension
  2
*D11
 10
3.167006557208081
 20
5.542883053288161
 30
0.0
 11
2.331965081294034
 21
5.66640446729224
 31
0.0
 70
    32
 71
     5
 42
1.670082951828094
 73
     0
 74
     0
 75
     0
  3
Standard
100
AcDbAlignedDimension
 13
1.496923605379986
 23
5.137737619197961
 33
0.0
 14
3.167006557208081
 24
5.00811858779901
 34
0.0
100
AcDbRotatedDimension
  0
TEXT
  5
1E21
330
1F
100
AcDbEntity
  8
0
 62
     7
100
AcDbText
 10
7.433554414064173
 20
1.991175462022792
 30
0.0
 40
0.18
  1
FRONT
100
AcDbText
  0
TEXT
  5
1EEC
330
1F
100
AcDbEntity
  8
DIM
100
AcDbText
 10
10.3155238995596
 20
3.267385001876997
 30
0.0
 40
0.14
  1
COLOR: LIGHT GRAY
100
AcDbText
  0
TEXT
  5
1EED
330
1F
100
AcDbEntity
  8
DIM
100
AcDbText
 10
10.3155238995596
 20
3.475718001876998
 30
0.0
 40
0.14
  1
MATERIAL: ABS
100
AcDbText
  0
TEXT
  5
1EEE
330
1F
100
AcDbEntity
  8
DIM
100
AcDbText
 10
10.2939288995596
 20
2.274220929535783
 30
0.0
 40
0.14
  1
DIMENSIONS =
100
AcDbText
  0
TEXT
  5
1EEF
330
1F
100
AcDbEntity
  8
DIM
100
AcDbText
 10
10.3155238995596
 20
2.820377645263771
 30
0.0
 40
0.14
  1
MOUNTING HOLE SIZE:  0.688 [17.5] DIA.
100
AcDbText
  0
TEXT
  5
1EF0
330
1F
100
AcDbEntity
  8
DIM
100
AcDbText
 10
11.77923782916324
 20
1.99279387590235
 30
0.0
 40
0.14
  1
(MILLIMETERS)
 72
     1
 11
12.41808895084917
 21
1.99279387590235
 31
0.0
100
AcDbText
  0
TEXT
  5
1EF1
330
1F
100
AcDbEntity
  8
DIM
100
AcDbText
 10
11.79558900029943
 20
2.252961470732085
 30
0.0
 40
0.14
  1
INCHES
 72
     1
 11
12.13630959853192
 21
2.252961470732085
 31
0.0
100
AcDbText
  0
TEXT
  5
1F02
330
1F
100
AcDbEntity
  8
0
 62
     7
100
AcDbText
 10
7.509720715638818
 20
6.881008532335207
 30
0.0
 40
0.18
  1
TOP
100
AcDbText
  0
TEXT
  5
1F8F
330
1F
100
AcDbEntity
  8
0
 62
     7
100
AcDbText
 10
2.166290687907153
 20
1.952003177823368
 30
0.0
 40
0.18
  1
SIDE
100
AcDbText
  0
ENDSEC
  0
SECTION
  2
OBJECTS
  0
DICTIONARY
  5
C
330
0
100
AcDbDictionary
281
     1
  3
ACAD_COLOR
350
FC
  3
ACAD_GROUP
350
D
  3
ACAD_LAYOUT
350
1A
  3
ACAD_MATERIAL
350
E7
  3
ACAD_MLINESTYLE
350
17
  3
ACAD_PLOTSETTINGS
350
19
  3
ACAD_PLOTSTYLENAME
350
E
  3
ACAD_TABLESTYLE
350
FD
  3
ACAD_VISUALSTYLE
350
EB
  3
AcDbVariableDictionary
350
3CB
  0
DICTIONARY
  5
4DC
330
8
100
AcDbDictionary
280
     1
281
     1
  0
DICTIONARY
  5
61E
330
2
100
AcDbDictionary
280
     1
281
     1
  3
ACAD_LAYERFILTERS
360
622
  3
ACLYDICTIONARY
360
621
  0
DICTIONARY
  5
1C36
330
1F
100
AcDbDictionary
280
     1
281
     1
  3
ACAD_SORTENTS
360
1C37
  0
DICTIONARY
  5
FC
102
{ACAD_REACTORS
330
C
102
}
330
C
100
AcDbDictionary
281
     1
  0
DICTIONARY
  5
D
102
{ACAD_REACTORS
330
C
102
}
330
C
100
AcDbDictionary
281
     1
  0
DICTIONARY
  5
1A
102
{ACAD_REACTORS
330
C
102
}
330
C
100
AcDbDictionary
281
     1
  3
Layout1
350
1E
  3
Layout2
350
26
  3
Model
350
22
  0
DICTIONARY
  5
E7
102
{ACAD_REACTORS
330
C
102
}
330
C
100
AcDbDictionary
281
     1
  3
ByBlock
350
E9
  3
ByLayer
350
E8
  3
Global
350
EA
  0
DICTIONARY
  5
17
102
{ACAD_REACTORS
330
C
102
}
330
C
100
AcDbDictionary
281
     1
  3
Standard
350
18
  0
DICTIONARY
  5
19
102
{ACAD_REACTORS
330
C
102
}
330
C
100
AcDbDictionary
281
     1
  3
JPG
350
BCD
  3
PDF
350
BD6
  0
ACDBDICTIONARYWDFLT
  5
E
102
{ACAD_REACTORS
330
C
102
}
330
C
100
AcDbDictionary
281
     1
  3
Normal
350
F
100
AcDbDictionaryWithDefault
340
F
  0
DICTIONARY
  5
FD
102
{ACAD_REACTORS
330
C
102
}
330
C
100
AcDbDictionary
281
     1
  3
Standard
350
FE
  0
DICTIONARY
  5
EB
102
{ACAD_REACTORS
330
C
102
}
330
C
100
AcDbDictionary
281
     1
  3
2dWireframe
350
F1
  3
3D Hidden
350
F3
  3
3dWireframe
350
F2
  3
Basic
350
F0
  3
Brighten
350
F7
  3
ColorChange
350
FB
  3
Conceptual
350
F4
  3
Dim
350
F6
  3
Facepattern
350
FA
  3
Flat
350
EC
  3
FlatWithEdges
350
ED
  3
Gouraud
350
EE
  3
GouraudWithEdges
350
EF
  3
Linepattern
350
F9
  3
Realistic
350
F5
  3
Thicken
350
F8
  0
DICTIONARY
  5
3CB
102
{ACAD_REACTORS
330
C
102
}
330
C
100
AcDbDictionary
281
     1
  3
CTABLESTYLE
350
3CC
  0
DICTIONARY
  5
622
102
{ACAD_REACTORS
330
61E
102
}
330
61E
100
AcDbDictionary
281
     1
  0
DICTIONARY
  5
621
102
{ACAD_REACTORS
330
61E
102
}
330
61E
100
AcDbDictionary
281
     1
1001
ACAD
1000
<All
  0
SORTENTSTABLE
  5
1C37
102
{ACAD_REACTORS
330
1C36
102
}
330
1C36
100
AcDbSortentsTable
330
1F
331
1051
  5
1051
331
1012
  5
1012
331
FDB
  5
FDB
331
F9C
  5
F9C
331
F65
  5
F65
331
1059
  5
1059
331
101A
  5
101A
331
FE3
  5
FE3
331
FA4
  5
FA4
331
F6D
  5
F6D
331
440
  5
440
331
1061
  5
1061
331
1022
  5
1022
331
FEB
  5
FEB
331
FAC
  5
FAC
331
F75
  5
F75
331
448
  5
448
331
1088
  5
1088
331
1BA1
  5
1BA1
331
11F2
  5
11F2
331
11BB
  5
11BB
331
117C
  5
117C
331
1145
  5
1145
331
1106
  5
1106
331
10CF
  5
10CF
331
102A
  5
102A
331
FB4
  5
FB4
331
F3E
  5
F3E
331
1090
  5
1090
331
11FA
  5
11FA
331
11C3
  5
11C3
331
1184
  5
1184
331
114D
  5
114D
331
110E
  5
110E
331
10D7
  5
10D7
331
1098
  5
1098
331
1202
  5
1202
331
11CB
  5
11CB
331
118C
  5
118C
331
1155
  5
1155
331
1116
  5
1116
331
10DF
  5
10DF
331
10A0
  5
10A0
331
120A
  5
120A
331
1194
  5
1194
331
111E
  5
111E
331
450
  5
450
331
1032
  5
1032
331
FF3
  5
FF3
331
FBC
  5
FBC
331
F7D
  5
F7D
331
F46
  5
F46
331
1C40
  5
1C41
331
103A
  5
103A
331
FFB
  5
FFB
331
FC4
  5
FC4
331
F85
  5
F85
331
F4E
  5
F4E
331
10A8
  5
10A8
331
1042
  5
1042
331
1003
  5
1003
331
FCC
  5
FCC
331
F8D
  5
F8D
331
F56
  5
F56
331
1069
  5
1069
331
11D3
  5
11D3
331
119C
  5
119C
331
115D
  5
115D
331
1126
  5
1126
331
10E7
  5
10E7
331
10B0
  5
10B0
331
104A
  5
104A
331
100B
  5
100B
331
FD4
  5
FD4
331
F95
  5
F95
331
F5E
  5
F5E
331
1071
  5
1071
331
11DB
  5
11DB
331
11A4
  5
11A4
331
1165
  5
1165
331
112E
  5
112E
331
10EF
  5
10EF
331
10B8
  5
10B8
331
1079
  5
1079
331
1B82
  5
1B82
331
11E3
  5
11E3
331
11AC
  5
11AC
331
116D
  5
116D
331
1136
  5
1136
331
10F7
  5
10F7
331
10C0
  5
10C0
331
1081
  5
1081
331
11EB
  5
11EB
331
11B4
  5
11B4
331
1175
  5
1175
331
113E
  5
113E
331
10FF
  5
10FF
331
1052
  5
1052
331
1013
  5
1013
331
FDC
  5
FDC
331
F9D
  5
F9D
331
F66
  5
F66
331
105A
  5
105A
331
101B
  5
101B
331
FE4
  5
FE4
331
FA5
  5
FA5
331
F6E
  5
F6E
331
441
  5
441
331
10C8
  5
10C8
331
1062
  5
1062
331
1023
  5
1023
331
FEC
  5
FEC
331
FAD
  5
FAD
331
F76
  5
F76
331
449
  5
449
331
1089
  5
1089
331
11F3
  5
11F3
331
11BC
  5
11BC
331
117D
  5
117D
331
1146
  5
1146
331
1107
  5
1107
331
10D0
  5
10D0
331
102B
  5
102B
331
FB5
  5
FB5
331
F3F
  5
F3F
331
1091
  5
1091
331
11FB
  5
11FB
331
11C4
  5
11C4
331
1185
  5
1185
331
114E
  5
114E
331
110F
  5
110F
331
10D8
  5
10D8
331
1099
  5
1099
331
1203
  5
1203
331
11CC
  5
11CC
331
118D
  5
118D
331
1156
  5
1156
331
1117
  5
1117
331
10A1
  5
10A1
331
120B
  5
120B
331
1195
  5
1195
331
111F
  5
111F
331
451
  5
451
331
1033
  5
1033
331
FF4
  5
FF4
331
FBD
  5
FBD
331
F7E
  5
F7E
331
F47
  5
F47
331
1C41
  5
1C42
331
103B
  5
103B
331
FFC
  5
FFC
331
FC5
  5
FC5
331
F86
  5
F86
331
F4F
  5
F4F
331
10E0
  5
10E0
331
10A9
  5
10A9
331
1043
  5
1043
331
1004
  5
1004
331
FCD
  5
FCD
331
F8E
  5
F8E
331
F57
  5
F57
331
106A
  5
106A
331
11D4
  5
11D4
331
119D
  5
119D
331
115E
  5
115E
331
1127
  5
1127
331
10E8
  5
10E8
331
10B1
  5
10B1
331
104B
  5
104B
331
100C
  5
100C
331
FD5
  5
FD5
331
F96
  5
F96
331
F5F
  5
F5F
331
1072
  5
1072
331
11DC
  5
11DC
331
11A5
  5
11A5
331
1166
  5
1166
331
112F
  5
112F
331
10F0
  5
10F0
331
10B9
  5
10B9
331
107A
  5
107A
331
11E4
  5
11E4
331
11AD
  5
11AD
331
116E
  5
116E
331
1137
  5
1137
331
10F8
  5
10F8
331
10C1
  5
10C1
331
1082
  5
1082
331
11EC
  5
11EC
331
11B5
  5
11B5
331
1176
  5
1176
331
113F
  5
113F
331
1053
  5
1053
331
1014
  5
1014
331
FDD
  5
FDD
331
F9E
  5
F9E
331
F67
  5
F67
331
105B
  5
105B
331
101C
  5
101C
331
FE5
  5
FE5
331
FA6
  5
FA6
331
F6F
  5
F6F
331
442
  5
442
331
1100
  5
1100
331
10C9
  5
10C9
331
1063
  5
1063
331
1024
  5
1024
331
FED
  5
FED
331
FAE
  5
FAE
331
F77
  5
F77
331
44A
  5
44A
331
108A
  5
108A
331
11F4
  5
11F4
331
11BD
  5
11BD
331
117E
  5
117E
331
1147
  5
1147
331
1108
  5
1108
331
10D1
  5
10D1
331
102C
  5
102C
331
FB6
  5
FB6
331
1092
  5
1092
331
11FC
  5
11FC
331
11C5
  5
11C5
331
1186
  5
1186
331
114F
  5
114F
331
1110
  5
1110
331
10D9
  5
10D9
331
109A
  5
109A
331
1BBB
  5
1BBB
331
1204
  5
1204
331
11CD
  5
11CD
331
118E
  5
118E
331
1157
  5
1157
331
1118
  5
1118
331
10A2
  5
10A2
331
120C
  5
120C
331
1196
  5
1196
331
F40
  5
F40
331
FF5
  5
FF5
331
FBE
  5
FBE
331
F7F
  5
F7F
331
F48
  5
F48
331
1C42
  5
1C43
331
103C
  5
103C
331
FFD
  5
FFD
331
FC6
  5
FC6
331
F87
  5
F87
331
F50
  5
F50
331
1120
  5
1120
331
10E1
  5
10E1
331
10AA
  5
10AA
331
1044
  5
1044
331
1005
  5
1005
331
FCE
  5
FCE
331
F8F
  5
F8F
331
F58
  5
F58
331
106B
  5
106B
331
11D5
  5
11D5
331
119E
  5
119E
331
115F
  5
115F
331
1128
  5
1128
331
10E9
  5
10E9
331
10B2
  5
10B2
331
104C
  5
104C
331
100D
  5
100D
331
FD6
  5
FD6
331
F97
  5
F97
331
1073
  5
1073
331
11DD
  5
11DD
331
11A6
  5
11A6
331
1167
  5
1167
331
1130
  5
1130
331
10F1
  5
10F1
331
10BA
  5
10BA
331
107B
  5
107B
331
11E5
  5
11E5
331
11AE
  5
11AE
331
116F
  5
116F
331
1138
  5
1138
331
10F9
  5
10F9
331
10C2
  5
10C2
331
1083
  5
1083
331
11ED
  5
11ED
331
11B6
  5
11B6
331
1177
  5
1177
331
F60
  5
F60
331
1054
  5
1054
331
1015
  5
1015
331
FDE
  5
FDE
331
F9F
  5
F9F
331
F68
  5
F68
331
105C
  5
105C
331
101D
  5
101D
331
FE6
  5
FE6
331
FA7
  5
FA7
331
F70
  5
F70
331
443
  5
443
331
1140
  5
1140
331
1101
  5
1101
331
10CA
  5
10CA
331
1064
  5
1064
331
1025
  5
1025
331
FEE
  5
FEE
331
FAF
  5
FAF
331
44B
  5
44B
331
108B
  5
108B
331
11F5
  5
11F5
331
11BE
  5
11BE
331
117F
  5
117F
331
1148
  5
1148
331
1109
  5
1109
331
10D2
  5
10D2
331
102D
  5
102D
331
FB7
  5
FB7
331
1093
  5
1093
331
11FD
  5
11FD
331
11C6
  5
11C6
331
1187
  5
1187
331
1150
  5
1150
331
1111
  5
1111
331
10DA
  5
10DA
331
109B
  5
109B
331
1205
  5
1205
331
11CE
  5
11CE
331
118F
  5
118F
331
1119
  5
1119
331
10A3
  5
10A3
331
120D
  5
120D
331
1197
  5
1197
331
F78
  5
F78
331
F41
  5
F41
331
453
  5
453
331
FF6
  5
FF6
331
FBF
  5
FBF
331
F80
  5
F80
331
F49
  5
F49
331
1C43
  5
1C44
331
103D
  5
103D
331
FFE
  5
FFE
331
FC7
  5
FC7
331
F88
  5
F88
331
F51
  5
F51
331
50B
  5
50B
331
1158
  5
1158
331
1121
  5
1121
331
10E2
  5
10E2
331
10AB
  5
10AB
331
1045
  5
1045
331
1006
  5
1006
331
FCF
  5
FCF
331
F90
  5
F90
331
F59
  5
F59
331
106C
  5
106C
331
11D6
  5
11D6
331
119F
  5
119F
331
1160
  5
1160
331
1129
  5
1129
331
10EA
  5
10EA
331
10B3
  5
10B3
331
104D
  5
104D
331
100E
  5
100E
331
FD7
  5
FD7
331
1074
  5
1074
331
11DE
  5
11DE
331
11A7
  5
11A7
331
1168
  5
1168
331
1131
  5
1131
331
10F2
  5
10F2
331
10BB
  5
10BB
331
107C
  5
107C
331
11E6
  5
11E6
331
11AF
  5
11AF
331
1170
  5
1170
331
1139
  5
1139
331
10FA
  5
10FA
331
10C3
  5
10C3
331
1084
  5
1084
331
11EE
  5
11EE
331
11B7
  5
11B7
331
F98
  5
F98
331
F61
  5
F61
331
1055
  5
1055
331
1016
  5
1016
331
FDF
  5
FDF
331
FA0
  5
FA0
331
F69
  5
F69
331
1BE4
  5
1BE4
331
105D
  5
105D
331
101E
  5
101E
331
FE7
  5
FE7
331
FA8
  5
FA8
331
F71
  5
F71
331
444
  5
444
331
1178
  5
1178
331
1141
  5
1141
331
1102
  5
1102
331
10CB
  5
10CB
331
1065
  5
1065
331
1026
  5
1026
331
FEF
  5
FEF
331
FB0
  5
FB0
331
44C
  5
44C
331
108C
  5
108C
331
11F6
  5
11F6
331
11BF
  5
11BF
331
1180
  5
1180
331
1149
  5
1149
331
110A
  5
110A
331
10D3
  5
10D3
331
102E
  5
102E
331
1094
  5
1094
331
11FE
  5
11FE
331
11C7
  5
11C7
331
1188
  5
1188
331
1151
  5
1151
331
1112
  5
1112
331
10DB
  5
10DB
331
109C
  5
109C
331
1206
  5
1206
331
11CF
  5
11CF
331
1190
  5
1190
331
111A
  5
111A
331
10A4
  5
10A4
331
120E
  5
120E
331
FB8
  5
FB8
331
F79
  5
F79
331
F42
  5
F42
331
454
  5
454
331
1036
  5
1036
331
FF7
  5
FF7
331
FC0
  5
FC0
331
F81
  5
F81
331
F4A
  5
F4A
331
103E
  5
103E
331
FFF
  5
FFF
331
FC8
  5
FC8
331
F89
  5
F89
331
F52
  5
F52
331
1198
  5
1198
331
1159
  5
1159
331
1122
  5
1122
331
10E3
  5
10E3
331
10AC
  5
10AC
331
1046
  5
1046
331
1007
  5
1007
331
FD0
  5
FD0
331
F91
  5
F91
331
F5A
  5
F5A
331
106D
  5
106D
331
11D7
  5
11D7
331
11A0
  5
11A0
331
1161
  5
1161
331
112A
  5
112A
331
10EB
  5
10EB
331
10B4
  5
10B4
331
104E
  5
104E
331
100F
  5
100F
331
1075
  5
1075
331
11DF
  5
11DF
331
11A8
  5
11A8
331
1169
  5
1169
331
1132
  5
1132
331
10F3
  5
10F3
331
10BC
  5
10BC
331
107D
  5
107D
331
11E7
  5
11E7
331
11B0
  5
11B0
331
1171
  5
1171
331
113A
  5
113A
331
10FB
  5
10FB
331
10C4
  5
10C4
331
1085
  5
1085
331
11EF
  5
11EF
331
FD8
  5
FD8
331
F99
  5
F99
331
F62
  5
F62
331
1056
  5
1056
331
1017
  5
1017
331
FE0
  5
FE0
331
FA1
  5
FA1
331
F6A
  5
F6A
331
43D
  5
43D
331
105E
  5
105E
331
101F
  5
101F
331
FE8
  5
FE8
331
FA9
  5
FA9
331
F72
  5
F72
331
445
  5
445
331
11B8
  5
11B8
331
1179
  5
1179
331
1142
  5
1142
331
1103
  5
1103
331
10CC
  5
10CC
331
1066
  5
1066
331
1027
  5
1027
331
FB1
  5
FB1
331
44D
  5
44D
331
108D
  5
108D
331
11F7
  5
11F7
331
11C0
  5
11C0
331
1181
  5
1181
331
114A
  5
114A
331
110B
  5
110B
331
10D4
  5
10D4
331
102F
  5
102F
331
1095
  5
1095
331
11FF
  5
11FF
331
11C8
  5
11C8
331
1189
  5
1189
331
1152
  5
1152
331
1113
  5
1113
331
10DC
  5
10DC
331
109D
  5
109D
331
1207
  5
1207
331
1191
  5
1191
331
111B
  5
111B
331
10A5
  5
10A5
331
120F
  5
120F
331
FF0
  5
FF0
331
FB9
  5
FB9
331
F7A
  5
F7A
331
F43
  5
F43
331
455
  5
455
331
1037
  5
1037
331
FF8
  5
FF8
331
FC1
  5
FC1
331
F82
  5
F82
331
F4B
  5
F4B
331
103F
  5
103F
331
1000
  5
1000
331
FC9
  5
FC9
331
F8A
  5
F8A
331
F53
  5
F53
331
11D0
  5
11D0
331
1199
  5
1199
331
115A
  5
115A
331
1123
  5
1123
331
10E4
  5
10E4
331
10AD
  5
10AD
331
1047
  5
1047
331
1008
  5
1008
331
FD1
  5
FD1
331
F92
  5
F92
331
F5B
  5
F5B
331
106E
  5
106E
331
11D8
  5
11D8
331
11A1
  5
11A1
331
1162
  5
1162
331
112B
  5
112B
331
10EC
  5
10EC
331
10B5
  5
10B5
331
104F
  5
104F
331
1076
  5
1076
331
11E0
  5
11E0
331
11A9
  5
11A9
331
116A
  5
116A
331
1133
  5
1133
331
10F4
  5
10F4
331
10BD
  5
10BD
331
107E
  5
107E
331
11E8
  5
11E8
331
11B1
  5
11B1
331
1172
  5
1172
331
113B
  5
113B
331
10FC
  5
10FC
331
10C5
  5
10C5
331
1086
  5
1086
331
1010
  5
1010
331
FD9
  5
FD9
331
F9A
  5
F9A
331
F63
  5
F63
331
1057
  5
1057
331
1018
  5
1018
331
FE1
  5
FE1
331
FA2
  5
FA2
331
F6B
  5
F6B
331
43E
  5
43E
331
105F
  5
105F
331
1020
  5
1020
331
FE9
  5
FE9
331
FAA
  5
FAA
331
F73
  5
F73
331
446
  5
446
331
11F0
  5
11F0
331
11B9
  5
11B9
331
117A
  5
117A
331
1143
  5
1143
331
1104
  5
1104
331
10CD
  5
10CD
331
1067
  5
1067
331
1028
  5
1028
331
FB2
  5
FB2
331
F3C
  5
F3C
331
44E
  5
44E
331
108E
  5
108E
331
11F8
  5
11F8
331
11C1
  5
11C1
331
1182
  5
1182
331
114B
  5
114B
331
110C
  5
110C
331
10D5
  5
10D5
331
1096
  5
1096
331
1200
  5
1200
331
11C9
  5
11C9
331
118A
  5
118A
331
1153
  5
1153
331
1114
  5
1114
331
10DD
  5
10DD
331
109E
  5
109E
331
1208
  5
1208
331
1192
  5
1192
331
111C
  5
111C
331
10A6
  5
10A6
331
1030
  5
1030
331
FF1
  5
FF1
331
FBA
  5
FBA
331
F7B
  5
F7B
331
F44
  5
F44
331
456
  5
456
331
1038
  5
1038
331
FF9
  5
FF9
331
FC2
  5
FC2
331
F83
  5
F83
331
F4C
  5
F4C
331
1040
  5
1040
331
1001
  5
1001
331
FCA
  5
FCA
331
F8B
  5
F8B
331
F54
  5
F54
331
1210
  5
1210
331
11D1
  5
11D1
331
119A
  5
119A
331
115B
  5
115B
331
1124
  5
1124
331
10E5
  5
10E5
331
10AE
  5
10AE
331
1048
  5
1048
331
1009
  5
1009
331
FD2
  5
FD2
331
F93
  5
F93
331
F5C
  5
F5C
331
1BD7
  5
1BD7
331
106F
  5
106F
331
11D9
  5
11D9
331
11A2
  5
11A2
331
1163
  5
1163
331
112C
  5
112C
331
10ED
  5
10ED
331
10B6
  5
10B6
331
1077
  5
1077
331
11E1
  5
11E1
331
11AA
  5
11AA
331
116B
  5
116B
331
1134
  5
1134
331
10F5
  5
10F5
331
10BE
  5
10BE
331
107F
  5
107F
331
11E9
  5
11E9
331
11B2
  5
11B2
331
1173
  5
1173
331
113C
  5
113C
331
10FD
  5
10FD
331
10C6
  5
10C6
331
1087
  5
1087
331
1050
  5
1050
331
1011
  5
1011
331
FDA
  5
FDA
331
F9B
  5
F9B
331
F64
  5
F64
331
1058
  5
1058
331
1019
  5
1019
331
FE2
  5
FE2
331
FA3
  5
FA3
331
F6C
  5
F6C
331
43F
  5
43F
331
1060
  5
1060
331
1021
  5
1021
331
FEA
  5
FEA
331
FAB
  5
FAB
331
F74
  5
F74
331
447
  5
447
331
11F1
  5
11F1
331
11BA
  5
11BA
331
117B
  5
117B
331
1144
  5
1144
331
1105
  5
1105
331
10CE
  5
10CE
331
1029
  5
1029
331
FB3
  5
FB3
331
F3D
  5
F3D
331
44F
  5
44F
331
108F
  5
108F
331
11F9
  5
11F9
331
11C2
  5
11C2
331
1183
  5
1183
331
114C
  5
114C
331
110D
  5
110D
331
10D6
  5
10D6
331
1097
  5
1097
331
1201
  5
1201
331
11CA
  5
11CA
331
118B
  5
118B
331
1154
  5
1154
331
1115
  5
1115
331
10DE
  5
10DE
331
109F
  5
109F
331
1209
  5
1209
331
1193
  5
1193
331
111D
  5
111D
331
10A7
  5
10A7
331
1031
  5
1031
331
FF2
  5
FF2
331
FBB
  5
FBB
331
F7C
  5
F7C
331
F45
  5
F45
331
B8E
  5
B8E
331
457
  5
457
331
1039
  5
1039
331
FFA
  5
FFA
331
FC3
  5
FC3
331
F84
  5
F84
331
F4D
  5
F4D
331
1BC8
  5
1BC8
331
1041
  5
1041
331
1002
  5
1002
331
FCB
  5
FCB
331
F8C
  5
F8C
331
F55
  5
F55
331
1068
  5
1068
331
1211
  5
1211
331
11D2
  5
11D2
331
119B
  5
119B
331
115C
  5
115C
331
1125
  5
1125
331
10E6
  5
10E6
331
10AF
  5
10AF
331
1049
  5
1049
331
100A
  5
100A
331
FD3
  5
FD3
331
F94
  5
F94
331
F5D
  5
F5D
331
1070
  5
1070
331
11DA
  5
11DA
331
11A3
  5
11A3
331
1164
  5
1164
331
112D
  5
112D
331
10EE
  5
10EE
331
10B7
  5
10B7
331
1078
  5
1078
331
11E2
  5
11E2
331
11AB
  5
11AB
331
116C
  5
116C
331
1135
  5
1135
331
10F6
  5
10F6
331
10BF
  5
10BF
331
1080
  5
1080
331
11EA
  5
11EA
331
11B3
  5
11B3
331
1174
  5
1174
331
113D
  5
113D
331
10FE
  5
10FE
331
10C7
  5
10C7
  0
LAYOUT
  5
1E
102
{ACAD_REACTORS
330
1A
102
}
330
1A
100
AcDbPlotSettings
  1

  2
none_device
  4

  6

 40
0.0
 41
0.0
 42
0.0
 43
0.0
 44
0.0
 45
0.0
 46
0.0
 47
0.0
 48
0.0
 49
0.0
140
0.0
141
0.0
142
1.0
143
1.0
 70
   688
 72
     0
 73
     0
 74
     5
  7

 75
    16
147
1.0
 76
     0
 77
     2
 78
   300
148
0.0
149
0.0
100
AcDbLayout
  1
Layout1
 70
     1
 71
     1
 10
0.0
 20
0.0
 11
12.0
 21
9.0
 12
0.0
 22
0.0
 32
0.0
 14
1.000000000000000E+20
 24
1.000000000000000E+20
 34
1.000000000000000E+20
 15
-1.000000000000000E+20
 25
-1.000000000000000E+20
 35
-1.000000000000000E+20
146
0.0
 13
0.0
 23
0.0
 33
0.0
 16
1.0
 26
0.0
 36
0.0
 17
0.0
 27
1.0
 37
0.0
 76
     0
330
1B
  0
LAYOUT
  5
26
102
{ACAD_REACTORS
330
1A
102
}
330
1A
100
AcDbPlotSettings
  1

  2
none_device
  4

  6

 40
0.0
 41
0.0
 42
0.0
 43
0.0
 44
0.0
 45
0.0
 46
0.0
 47
0.0
 48
0.0
 49
0.0
140
0.0
141
0.0
142
1.0
143
1.0
 70
   688
 72
     0
 73
     0
 74
     5
  7

 75
    16
147
1.0
 76
     0
 77
     2
 78
   300
148
0.0
149
0.0
100
AcDbLayout
  1
Layout2
 70
     1
 71
     2
 10
0.0
 20
0.0
 11
0.0
 21
0.0
 12
0.0
 22
0.0
 32
0.0
 14
0.0
 24
0.0
 34
0.0
 15
0.0
 25
0.0
 35
0.0
146
0.0
 13
0.0
 23
0.0
 33
0.0
 16
1.0
 26
0.0
 36
0.0
 17
0.0
 27
1.0
 37
0.0
 76
     0
330
23
  0
LAYOUT
  5
22
102
{ACAD_REACTORS
330
1A
102
}
330
1A
100
AcDbPlotSettings
  1

  2
none_device
  4
Letter_(8.50_x_11.00_Inches)
  6

 40
6.349999904632568
 41
6.349999904632568
 42
6.350006103515625
 43
6.350006103515625
 44
215.8999938964844
 45
279.3999938964844
 46
0.0
 47
0.0
 48
0.0
 49
0.0
140
0.0
141
0.0
142
1.0
143
2.383658744906425
 70
 11952
 72
     0
 73
     1
 74
     0
  7

 75
     0
147
0.4195231394329716
 76
     0
 77
     2
 78
   300
148
135.2900774710282
149
-27.52084133435472
100
AcDbLayout
  1
Model
 70
     1
 71
     0
 10
0.0
 20
0.0
 11
16.53543307086614
 21
11.69291338582677
 12
0.0
 22
0.0
 32
0.0
 14
0.0
 24
0.0
 34
0.0
 15
16.53543307086614
 25
11.69291338582677
 35
0.0
146
0.0
 13
0.0
 23
0.0
 33
0.0
 16
1.0
 26
0.0
 36
0.0
 17
0.0
 27
1.0
 37
0.0
 76
     0
330
1F
331
29
1001
ACAD_PSEXT
1000
None
1000
None
1000
Not applicable
1000
The layout will not be plotted unless a new plotter configuration name is selected.
1070
     0
  0
MATERIAL
  5
E9
102
{ACAD_REACTORS
330
E7
102
}
330
E7
100
AcDbMaterial
  1
ByBlock
  0
MATERIAL
  5
E8
102
{ACAD_REACTORS
330
E7
102
}
330
E7
100
AcDbMaterial
  1
ByLayer
  0
MATERIAL
  5
EA
102
{ACAD_REACTORS
330
E7
102
}
330
E7
100
AcDbMaterial
  1
Global
  0
MLINESTYLE
  5
18
102
{ACAD_REACTORS
330
17
102
}
330
17
100
AcDbMlineStyle
  2
STANDARD
 70
     0
  3

 62
   256
 51
90.0
 52
90.0
 71
     2
 49
0.5
 62
   256
  6
BYLAYER
 49
-0.5
 62
   256
  6
BYLAYER
  0
PLOTSETTINGS
  5
BCD
102
{ACAD_REACTORS
330
19
102
}
330
19
100
AcDbPlotSettings
  1
JPG
  2
PublishToWeb JPG.pc3
  4
User-1
  6

 40
75.0
 41
75.0
 42
75.000244140625
 43
75.000244140625
 44
2550.0
 45
3300.0
 46
7.281523769336445
 47
0.0
 48
0.0
 49
0.0
140
14.0715579263031
141
10.65613124516161
142
1.0
143
0.0044671615926726
 70
 11956
 72
     2
 73
     1
 74
     4
  7

 75
     0
147
223.8557928238545
 76
     0
 77
     2
 78
   300
148
0.0
149
0.0
1001
ACAD_PSEXT
1000
PublishToWeb JPG.pc3
1000
Independent JPEG Group JFIF (JPEG Compression)
1000
File
1000

1070
     0
  0
PLOTSETTINGS
  5
BD6
102
{ACAD_REACTORS
330
19
102
}
330
19
100
AcDbPlotSettings
  1
PDF
  2
DWG To PDF.pc3
  4
ISO_expand_A1_(841.00_x_594.00_MM)
  6

 40
5.793749809265136
 41
10.79374980926513
 42
5.79376220703125
 43
10.79376220703125
 44
841.0
 45
594.0
 46
36.76722948979273
 47
0.0
 48
0.0
 49
0.0
140
14.0715579263031
141
10.65613124516161
142
1.0
143
0.0186161753435837
 70
 11956
 72
     1
 73
     0
 74
     4
  7

 75
     0
147
53.71672653183637
 76
     0
 77
     2
 78
   300
148
0.0
149
0.0
1001
ACAD_PSEXT
1000
DWG To PDF.pc3
1000
PDF
1000
File
1000

1070
     0
  0
ACDBPLACEHOLDER
  5
F
102
{ACAD_REACTORS
330
E
102
}
330
E
  0
TABLESTYLE
  5
FE
102
{ACAD_REACTORS
330
FD
102
}
330
FD
100
AcDbTableStyle
  3
Standard
 70
     0
 71
     0
 40
0.06
 41
0.06
280
     0
281
     0
  7
Standard
140
0.18
170
     2
 62
     0
 63
     7
283
     0
 90
      512
 91
        0
  1

274
    -2
284
     1
 64
     0
275
    -2
285
     1
 65
     0
276
    -2
286
     1
 66
     0
277
    -2
287
     1
 67
     0
278
    -2
288
     1
 68
     0
279
    -2
289
     1
 69
     0
  7
Standard
140
0.25
170
     5
 62
     0
 63
     7
283
     0
 90
      512
 91
        0
  1

274
    -2
284
     1
 64
     0
275
    -2
285
     1
 65
     0
276
    -2
286
     1
 66
     0
277
    -2
287
     1
 67
     0
278
    -2
288
     1
 68
     0
279
    -2
289
     1
 69
     0
  7
Standard
140
0.18
170
     5
 62
     0
 63
     7
283
     0
 90
      512
 91
        0
  1

274
    -2
284
     1
 64
     0
275
    -2
285
     1
 65
     0
276
    -2
286
     1
 66
     0
277
    -2
287
     1
 67
     0
278
    -2
288
     1
 68
     0
279
    -2
289
     1
 69
     0
  0
VISUALSTYLE
  5
F1
102
{ACAD_REACTORS
330
EB
102
}
330
EB
100
AcDbVisualStyle
  2
2dWireframe
 70
     4
 71
     0
 72
     2
 73
     0
 90
        0
 40
-0.6
 41
-30.0
 62
     5
 63
     7
421
 16777215
 74
     1
 91
        4
 64
     7
 65
   257
 75
     1
175
     1
 42
1.0
 92
        0
 66
   257
 43
1.0
 76
     1
 77
     6
 78
     2
 67
     7
 79
     5
170
     0
171
     0
290
     0
174
     0
 93
        1
 44
0.0
173
     0
291
     0
 45
0.0
  0
VISUALSTYLE
  5
F3
102
{ACAD_REACTORS
330
EB
102
}
330
EB
100
AcDbVisualStyle
  2
3D Hidden
 70
     6
 71
     1
 72
     2
 73
     2
 90
        0
 40
-0.6
 41
-30.0
 62
     5
 63
     7
421
 16777215
 74
     2
 91
        2
 64
     7
 65
   257
 75
     2
175
     1
 42
40.0
 92
        0
 66
   257
 43
1.0
 76
     1
 77
     6
 78
     2
 67
     7
 79
     3
170
     0
171
     0
290
     0
174
     0
 93
        1
 44
0.0
173
     0
291
     0
 45
0.0
  0
VISUALSTYLE
  5
F2
102
{ACAD_REACTORS
330
EB
102
}
330
EB
100
AcDbVisualStyle
  2
3dWireframe
 70
     5
 71
     0
 72
     2
 73
     0
 90
        0
 40
-0.6
 41
-30.0
 62
     5
 63
     7
421
 16777215
 74
     1
 91
        4
 64
     7
 65
   257
 75
     1
175
     1
 42
1.0
 92
        0
 66
   257
 43
1.0
 76
     1
 77
     6
 78
     2
 67
     7
 79
     5
170
     0
171
     0
290
     0
174
     0
 93
        1
 44
0.0
173
     0
291
     0
 45
0.0
  0
VISUALSTYLE
  5
F0
102
{ACAD_REACTORS
330
EB
102
}
330
EB
100
AcDbVisualStyle
  2
Basic
 70
     7
 71
     1
 72
     0
 73
     1
 90
        0
 40
-0.6
 41
-30.0
 62
     5
 63
     7
421
 16777215
 74
     0
 91
        4
 64
     7
 65
   257
 75
     1
175
     1
 42
1.0
 92
        8
 66
     7
 43
1.0
 76
     1
 77
     6
 78
     2
 67
     7
 79
     5
170
     0
171
     0
290
     0
174
     0
 93
        1
 44
0.0
173
     0
291
     1
 45
0.0
  0
VISUALSTYLE
  5
F7
102
{ACAD_REACTORS
330
EB
102
}
330
EB
100
AcDbVisualStyle
  2
Brighten
 70
    12
 71
     2
 72
     2
 73
     0
 90
        0
 40
-0.6
 41
-30.0
 62
     5
 63
     7
421
 16777215
 74
     1
 91
        4
 64
     7
 65
   257
 75
     1
175
     1
 42
1.0
 92
        8
 66
     7
 43
1.0
 76
     1
 77
     6
 78
     2
 67
     7
 79
     5
170
     0
171
     0
290
     0
174
     0
 93
        1
 44
50.0
173
     0
291
     1
 45
0.0
  0
VISUALSTYLE
  5
FB
102
{ACAD_REACTORS
330
EB
102
}
330
EB
100
AcDbVisualStyle
  2
ColorChange
 70
    16
 71
     2
 72
     2
 73
     3
 90
        0
 40
-0.6
 41
-30.0
 62
     5
 63
     8
421
  8421504
 74
     1
 91
        4
 64
     7
 65
   257
 75
     1
175
     1
 42
1.0
 92
        8
 66
     8
424
  8421504
 43
1.0
 76
     1
 77
     6
 78
     2
 67
     7
 79
     5
170
     0
171
     0
290
     0
174
     0
 93
        1
 44
0.0
173
     0
291
     1
 45
0.0
  0
VISUALSTYLE
  5
F4
102
{ACAD_REACTORS
330
EB
102
}
330
EB
100
AcDbVisualStyle
  2
Conceptual
 70
     9
 71
     3
 72
     2
 73
     0
 90
        0
 40
-0.6
 41
-30.0
 62
     5
 63
     7
421
 16777215
 74
     2
 91
        2
 64
     7
 65
   257
 75
     1
175
     1
 42
40.0
 92
        8
 66
     7
 43
1.0
 76
     1
 77
     6
 78
     2
 67
     7
 79
     3
170
     0
171
     0
290
     0
174
     0
 93
        1
 44
0.0
173
     0
291
     0
 45
0.0
  0
VISUALSTYLE
  5
F6
102
{ACAD_REACTORS
330
EB
102
}
330
EB
100
AcDbVisualStyle
  2
Dim
 70
    11
 71
     2
 72
     2
 73
     0
 90
        0
 40
-0.6
 41
-30.0
 62
     5
 63
     7
421
 16777215
 74
     1
 91
        4
 64
     7
 65
   257
 75
     1
175
     1
 42
1.0
 92
        8
 66
     7
 43
1.0
 76
     1
 77
     6
 78
     2
 67
     7
 79
     5
170
     0
171
     0
290
     0
174
     0
 93
        1
 44
-50.0
173
     0
291
     1
 45
0.0
  0
VISUALSTYLE
  5
FA
102
{ACAD_REACTORS
330
EB
102
}
330
EB
100
AcDbVisualStyle
  2
Facepattern
 70
    15
 71
     2
 72
     2
 73
     0
 90
        0
 40
-0.6
 41
-30.0
 62
     5
 63
     7
421
 16777215
 74
     1
 91
        4
 64
     7
 65
   257
 75
     1
175
     1
 42
1.0
 92
        8
 66
     7
 43
1.0
 76
     1
 77
     6
 78
     2
 67
     7
 79
     5
170
     0
171
     0
290
     0
174
     0
 93
        1
 44
0.0
173
     0
291
     1
 45
0.0
  0
VISUALSTYLE
  5
EC
102
{ACAD_REACTORS
330
EB
102
}
330
EB
100
AcDbVisualStyle
  2
Flat
 70
     0
 71
     2
 72
     1
 73
     1
 90
        2
 40
-0.6
 41
30.0
 62
     5
 63
     7
421
 16777215
 74
     0
 91
        4
 64
     7
 65
   257
 75
     1
175
     1
 42
1.0
 92
        8
 66
     7
 43
1.0
 76
     1
 77
     6
 78
     2
 67
     7
 79
     5
170
     0
171
     0
290
     0
174
     0
 93
       13
 44
0.0
173
     0
291
     1
 45
0.0
  0
VISUALSTYLE
  5
ED
102
{ACAD_REACTORS
330
EB
102
}
330
EB
100
AcDbVisualStyle
  2
FlatWithEdges
 70
     1
 71
     2
 72
     1
 73
     1
 90
        2
 40
-0.6
 41
30.0
 62
     5
 63
     7
421
 16777215
 74
     1
 91
        4
 64
     7
 65
   257
 75
     1
175
     1
 42
1.0
 92
        0
 66
   257
 43
1.0
 76
     1
 77
     6
 78
     2
 67
     7
 79
     5
170
     0
171
     0
290
     0
174
     0
 93
       13
 44
0.0
173
     0
291
     1
 45
0.0
  0
VISUALSTYLE
  5
EE
102
{ACAD_REACTORS
330
EB
102
}
330
EB
100
AcDbVisualStyle
  2
Gouraud
 70
     2
 71
     2
 72
     2
 73
     1
 90
        2
 40
-0.6
 41
30.0
 62
     5
 63
     7
421
 16777215
 74
     0
 91
        4
 64
     7
 65
   257
 75
     1
175
     1
 42
1.0
 92
        0
 66
     7
 43
1.0
 76
     1
 77
     6
 78
     2
 67
     7
 79
     5
170
     0
171
     0
290
     0
174
     0
 93
       13
 44
0.0
173
     0
291
     1
 45
0.0
  0
VISUALSTYLE
  5
EF
102
{ACAD_REACTORS
330
EB
102
}
330
EB
100
AcDbVisualStyle
  2
GouraudWithEdges
 70
     3
 71
     2
 72
     2
 73
     1
 90
        2
 40
-0.6
 41
30.0
 62
     5
 63
     7
421
 16777215
 74
     1
 91
        4
 64
     7
 65
   257
 75
     1
175
     1
 42
1.0
 92
        0
 66
   257
 43
1.0
 76
     1
 77
     6
 78
     2
 67
     7
 79
     5
170
     0
171
     0
290
     0
174
     0
 93
       13
 44
0.0
173
     0
291
     1
 45
0.0
  0
VISUALSTYLE
  5
F9
102
{ACAD_REACTORS
330
EB
102
}
330
EB
100
AcDbVisualStyle
  2
Linepattern
 70
    14
 71
     2
 72
     2
 73
     0
 90
        0
 40
-0.6
 41
-30.0
 62
     5
 63
     7
421
 16777215
 74
     1
 91
        4
 64
     7
 65
   257
 75
     7
175
     7
 42
1.0
 92
        8
 66
     7
 43
1.0
 76
     1
 77
     6
 78
     2
 67
     7
 79
     5
170
     0
171
     0
290
     0
174
     0
 93
        1
 44
0.0
173
     0
291
     1
 45
0.0
  0
VISUALSTYLE
  5
F5
102
{ACAD_REACTORS
330
EB
102
}
330
EB
100
AcDbVisualStyle
  2
Realistic
 70
     8
 71
     2
 72
     2
 73
     0
 90
        0
 40
-0.6
 41
-30.0
 62
     5
 63
     7
421
 16777215
 74
     1
 91
        0
 64
     7
 65
   257
 75
     1
175
     1
 42
1.0
 92
        8
 66
     8
424
  7895160
 43
1.0
 76
     1
 77
     6
 78
     2
 67
     7
 79
     5
170
     0
171
     0
290
     0
174
     0
 93
       13
 44
0.0
173
     0
291
     0
 45
0.0
  0
VISUALSTYLE
  5
F8
102
{ACAD_REACTORS
330
EB
102
}
330
EB
100
AcDbVisualStyle
  2
Thicken
 70
    13
 71
     2
 72
     2
 73
     0
 90
        0
 40
-0.6
 41
-30.0
 62
     5
 63
     7
421
 16777215
 74
     1
 91
        4
 64
     7
 65
   257
 75
     1
175
     1
 42
1.0
 92
       12
 66
     7
 43
1.0
 76
     1
 77
     6
 78
     2
 67
     7
 79
     5
170
     0
171
     0
290
     0
174
     0
 93
        1
 44
0.0
173
     0
291
     1
 45
0.0
  0
DICTIONARYVAR
  5
3CC
102
{ACAD_REACTORS
330
3CB
102
}
330
3CB
100
DictionaryVariables
280
     0
  1
STANDARD
  0
ENDSEC
  0
EOF
